DVD Stacie Orrico - Everything (Clean) [VOB]

Discussion in 'SD' started by claudio1301, Apr 22, 2021.

  1. claudio1301

    claudio1301 Well-Known Member V . I . P.

    Joined:
    Oct 2, 2018
    Messages:
    1,784
    Likes Received:
    4,358
    [​IMG]
    Code:
    General
    Complete name                  : Stacie Orrico - Everything (Clean).vob
    Format                         : MPEG-PS
    File size                      : 285 MiB
    Duration                       : 4 min 6 s
    Overall bit rate mode          : Variable
    Overall bit rate               : 9 716 kb/s
    
    Video
    ID                             : 224 (0xE0)
    Format                         : MPEG Video
    Format version                 : Version 2
    Format profile                 : Main@Main
    Format settings                : CustomMatrix / BVOP
    Format settings, BVOP          : Yes
    Format settings, Matrix        : Custom
    Format settings, GOP           : Variable
    Format settings, picture struc : Frame
    Duration                       : 4 min 6 s
    Bit rate mode                  : Variable
    Bit rate                       : 7 986 kb/s
    Width                          : 720 pixels
    Height                         : 480 pixels
    Display aspect ratio           : 4:3
    Frame rate                     : 29.970 (30000/1001) FPS
    Standard                       : NTSC
    Color space                    : YUV
    Chroma subsampling             : 4:2:0
    Bit depth                      : 8 bits
    Scan type                      : Interlaced
    Scan order                     : Top Field First
    Compression mode               : Lossy
    Bits/(Pixel*Frame)             : 0.771
    Time code of first frame       : 00:00:00;09
    Time code source               : Group of pictures header
    GOP, Open/Closed               : Open
    Stream size                    : 235 MiB (82%)
    
    Audio
    ID                             : 189 (0xBD)-160 (0xA0)
    Format                         : PCM
    Format settings                : Big / Signed
    Muxing mode                    : DVD-Video
    Duration                       : 4 min 6 s
    Bit rate mode                  : Constant
    Bit rate                       : 1 536 kb/s
    Channel(s)                     : 2 channels
    Sampling rate                  : 48.0 kHz
    Bit depth                      : 16 bits
    Delay relative to video        : -67 ms
    Stream size                    : 45.1 MiB (16%)
    
    Menu
    Host: Mediafire
    Hidden Content:
    You must reply before you can see the hidden data contained here.
     
    CELOBRAZiL and vhac like this.
  2. Loading...


  3. vhac

    vhac New Member

    Joined:
    Jul 5, 2014
    Messages:
    14
    Likes Received:
    2
    thnk u
     
  4. revili181920

    revili181920 Active Member

    Joined:
    Apr 16, 2020
    Messages:
    739
    Likes Received:
    39
  5. CELOBRAZiL

    CELOBRAZiL Well-Known Member Capper V . I . P. Donor

    Joined:
    Oct 2, 2013
    Messages:
    10,643
    Likes Received:
    38,392
    Thanks! :)
     
  6. jfsilva28

    jfsilva28 Well-Known Member

    Joined:
    May 9, 2018
    Messages:
    1,911
    Likes Received:
    180
    Gracias
     
  7. kevinl203

    kevinl203 Member

    Joined:
    Feb 25, 2016
    Messages:
    871
    Likes Received:
    12
    Thanks...