Ozuna - La Funka MASTER ProRes 2160p LPCM2.0

Discussion in 'PRORES HD' started by CELOBRAZiL, Oct 6, 2021.

  1. CELOBRAZiL

    CELOBRAZiL Well-Known Member Capper V . I . P. Donor

    Joined:
    Oct 2, 2013
    Messages:
    13,668
    Likes Received:
    49,729
    Ozuna - La Funka MASTER ProRes 2160p LPCM2.0

    [​IMG]



    Format : MPEG-4
    Format profile : QuickTime
    Codec ID : qt 2005.03 (qt )
    File size : 15.7 GiB
    Duration : 3 min 30 s
    Overall bit rate mode : Variable
    Overall bit rate : 642 Mb/s
    Encoded date : UTC 2021-09-08 03:09:23
    Tagged date : UTC 2021-09-08 03:21:14
    Writing library : Apple QuickTime
    TIM : 00:00:00:00
    TSC : 24000
    TSZ : 1001

    Video
    ID : 1
    Format : ProRes
    Format version : Version 0
    Format profile : 422 HQ
    Codec ID : apch
    Duration : 3 min 30 s
    Bit rate mode : Variable
    Bit rate : 640 Mb/s
    Width : 3 840 pixels
    Height : 2 160 pixels
    Display aspect ratio : 16:9
    Frame rate mode : Constant
    Frame rate : 23.976 (24000/1001) FPS
    Color space : YUV
    Chroma subsampling : 4:2:2
    Scan type : Progressive
    Bits/(Pixel*Frame) : 3.218
    Stream size : 15.7 GiB (100%)
    Writing library : adb0
    Language : English
    Encoded date : UTC 2021-09-08 03:09:23
    Tagged date : UTC 2021-09-08 03:09:23
    Color primaries : BT.709
    Transfer characteristics : BT.709
    Matrix coefficients : BT.709

    Audio
    ID : 2
    Format : PCM
    Format settings : Little / Signed
    Codec ID : sowt
    Duration : 3 min 30 s
    Bit rate mode : Constant
    Bit rate : 1 536 kb/s
    Channel(s) : 2 channels
    Channel layout : L R
    Sampling rate : 48.0 kHz
    Bit depth : 16 bits
    Stream size : 38.6 MiB (0%)
    Language : English
    Encoded date : UTC 2021-09-08 03:09:23
    Tagged date : UTC 2021-09-08 03:09:23

    Other
    ID : 3
    Type : Time code
    Format : QuickTime TC
    Duration : 3 min 30 s
    Frame rate : 23.976 (24000/1001) FPS
    Time code of first frame : 00:00:00:00
    Time code, striped : Yes
    Language : English
    Encoded date : UTC 2021-09-08 03:09:23
    Tagged date : UTC 2021-09-08 03:09:23


    Link(s):
    Hidden Content:
    You must either reply or click 'Like' to see the hidden information contained here.
     
    bunny and 007felix like this.
  2. Loading...


  3. CELOBRAZiL

    CELOBRAZiL Well-Known Member Capper V . I . P. Donor

    Joined:
    Oct 2, 2013
    Messages:
    13,668
    Likes Received:
    49,729
    :love::love::love:

    Added GOOGLE DRIVE link! :p
     
  4. tegibu

    tegibu Well-Known Member

    Joined:
    Jan 9, 2018
    Messages:
    1,179
    Likes Received:
    805
    thanks
     
    CELOBRAZiL likes this.