DVD Mariah Carey - Obsessed (Clean) [VOB]

Discussion in 'SD' started by claudio1301, Apr 22, 2021.

  1. claudio1301

    claudio1301 Well-Known Member V . I . P.

    Joined:
    Oct 2, 2018
    Messages:
    1,784
    Likes Received:
    4,358
    [​IMG]
    Code:
    General
    Complete name                  : Mariah Carey - Obsessed (Clean).vob
    Format                         : MPEG-PS
    File size                      : 234 MiB
    Duration                       : 4 min 5 s
    Overall bit rate mode          : Variable
    Overall bit rate               : 7 985 kb/s
    
    Video
    ID                             : 224 (0xE0)
    Format                         : MPEG Video
    Format version                 : Version 2
    Format profile                 : Main@Main
    Format settings                : CustomMatrix / BVOP
    Format settings, BVOP          : Yes
    Format settings, Matrix        : Custom
    Format settings, GOP           : Variable
    Format settings, picture struc : Frame
    Duration                       : 4 min 5 s
    Bit rate mode                  : Variable
    Bit rate                       : 7 378 kb/s
    Maximum bit rate               : 8 308 kb/s
    Width                          : 720 pixels
    Height                         : 480 pixels
    Display aspect ratio           : 4:3
    Frame rate                     : 29.970 (30000/1001) FPS
    Standard                       : NTSC
    Color space                    : YUV
    Chroma subsampling             : 4:2:0
    Bit depth                      : 8 bits
    Scan type                      : Interlaced
    Scan order                     : Top Field First
    Compression mode               : Lossy
    Bits/(Pixel*Frame)             : 0.712
    Time code of first frame       : 00:00:00:00
    Time code source               : Group of pictures header
    Stream size                    : 216 MiB (92%)
    Color primaries                : BT.601 NTSC
    Transfer characteristics       : BT.601
    Matrix coefficients            : BT.601
    
    Audio
    ID                             : 189 (0xBD)-128 (0x80)
    Format                         : AC-3
    Format/Info                    : Audio Coding 3
    Commercial name                : Dolby Digital
    Muxing mode                    : DVD-Video
    Duration                       : 4 min 5 s
    Bit rate mode                  : Constant
    Bit rate                       : 448 kb/s
    Channel(s)                     : 2 channels
    Channel layout                 : L R
    Sampling rate                  : 48.0 kHz
    Frame rate                     : 31.250 FPS (1536 SPF)
    Compression mode               : Lossy
    Stream size                    : 13.1 MiB (6%)
    Service kind                   : Complete Main
    
    Menu
    Host: Mediafire
    Hidden Content:
    You must reply before you can see the hidden data contained here.
     
    #SuperBoy, CELOBRAZiL, viviic and 3 others like this.
  2. Loading...


  3. ccecil1985

    ccecil1985 Well-Known Member

    Joined:
    Nov 1, 2020
    Messages:
    779
    Likes Received:
    712
    OMG Thank you! now I can upscale it!
     
  4. jeferso

    jeferso Active Member

    Joined:
    May 29, 2019
    Messages:
    477
    Likes Received:
    238
    obrigado
     
  5. krogdalo

    krogdalo Learning is Fun!

    Joined:
    Mar 7, 2020
    Messages:
    385
    Likes Received:
    16
    Thanks!
     
  6. agnus2000

    agnus2000 Well-Known Member

    Joined:
    Feb 16, 2018
    Messages:
    1,156
    Likes Received:
    54
    Thanks!
     
  7. biglovejoy

    biglovejoy Well-Known Member

    Joined:
    Jan 10, 2018
    Messages:
    2,633
    Likes Received:
    284
  8. CELOBRAZiL

    CELOBRAZiL Well-Known Member Capper V . I . P. Donor

    Joined:
    Oct 2, 2013
    Messages:
    10,643
    Likes Received:
    38,392
    Thanks! :)
     
  9. fred BK

    fred BK Member

    Joined:
    Nov 16, 2020
    Messages:
    216
    Likes Received:
    7
    Thanks man
     
  10. dinhotwain

    dinhotwain Well-Known Member

    Joined:
    Jan 1, 2015
    Messages:
    2,777
    Likes Received:
    365
    Tha k you
     
  11. kevinl203

    kevinl203 Member

    Joined:
    Feb 25, 2016
    Messages:
    871
    Likes Received:
    12
    Thanks...
     
  12. #SuperBoy

    #SuperBoy Well-Known Member

    Joined:
    Dec 11, 2016
    Messages:
    869
    Likes Received:
    1,037