HDTV CMT Crossroads - Stevie Nicks & Lady Antebellum (2013) CMT 1080i HDTV DD5.1 MPEG2-TrollHD [CC]

Discussion in 'HD Live Performances' started by CELOBRAZiL, Jul 22, 2021.

  1. CELOBRAZiL

    CELOBRAZiL Well-Known Member Capper V . I . P. Donor

    Joined:
    Oct 2, 2013
    Messages:
    11,961
    Likes Received:
    42,926
    CMT Crossroads - Stevie Nicks & Lady Antebellum (2013) CMT 1080i HDTV DD5.1 MPEG2-TrollHD [CC]

    [​IMG]



    Format : MPEG-TS
    File size : 4.56 GiB
    Duration : 39 min 26 s
    Overall bit rate mode : Variable
    Overall bit rate : 16.5 Mb/s
    Law rating : TV-PG

    Video
    ID : 613 (0x265)
    Menu ID : 1 (0x1)
    Format : MPEG Video
    Format version : Version 2
    Format profile : Main@High
    Format settings : CustomMatrix / BVOP
    Format settings, BVOP : Yes
    Format settings, Matrix : Custom
    Format settings, GOP : M=3, N=15
    Format settings, picture structure : Frame
    Codec ID : 2
    Duration : 39 min 25 s
    Bit rate mode : Variable
    Bit rate : 15.3 Mb/s
    Maximum bit rate : 16.0 Mb/s
    Width : 1 920 pixels
    Height : 1 080 pixels
    Display aspect ratio : 16:9
    Frame rate : 29.970 (30000/1001) FPS
    Color space : YUV
    Chroma subsampling : 4:2:0
    Bit depth : 8 bits
    Scan type : Interlaced
    Scan order : Top Field First
    Compression mode : Lossy
    Bits/(Pixel*Frame) : 0.247
    Time code of first frame : 00:00:00;00
    Time code source : Group of pictures header
    GOP, Open/Closed : Open
    GOP, Open/Closed of first frame : Closed
    Stream size : 4.23 GiB (93%)

    Audio
    ID : 612 (0x264)
    Menu ID : 1 (0x1)
    Format : AC-3
    Format/Info : Audio Coding 3
    Commercial name : Dolby Digital
    Codec ID : 129
    Duration : 39 min 25 s
    Bit rate mode : Constant
    Bit rate : 384 kb/s
    Channel(s) : 6 channels
    Channel layout : L R C LFE Ls Rs
    Sampling rate : 48.0 kHz
    Frame rate : 31.250 FPS (1536 SPF)
    Compression mode : Lossy
    Delay relative to video : 1 ms
    Stream size : 108 MiB (2%)
    Language : English
    Service kind : Complete Main

    Text #1
    ID : 613 (0x265)-CC1
    Menu ID : 1 (0x1)
    Format : EIA-608
    Muxing mode : A/53 / DTVCC Transport
    Muxing mode, more info : Muxed in Video #1
    Duration : 39 min 25 s
    Bit rate mode : Constant
    Stream size : 0.00 Byte (0%)
    CaptionServiceName : CC1

    Text #2
    ID : 613 (0x265)-CC4
    Menu ID : 1 (0x1)
    Format : EIA-608
    Muxing mode : A/53 / DTVCC Transport
    Muxing mode, more info : Muxed in Video #1
    Duration : 39 min 25 s
    Bit rate mode : Constant
    Stream size : 0.00 Byte (0%)
    CaptionServiceName : CC4

    Text #3
    ID : 613 (0x265)-1
    Menu ID : 1 (0x1)
    Format : EIA-708
    Muxing mode : A/53 / DTVCC Transport
    Muxing mode, more info : Muxed in Video #1
    Duration : 39 min 25 s
    Bit rate mode : Constant
    Stream size : 0.00 Byte (0%)


    Link(s):
    Hidden Content:
    You must either reply or click 'Like' to see the hidden information contained here.
     
    EGC, 12wurzel, Wes Halliwell and 2 others like this.
  2. Loading...


  3. CELOBRAZiL

    CELOBRAZiL Well-Known Member Capper V . I . P. Donor

    Joined:
    Oct 2, 2013
    Messages:
    11,961
    Likes Received:
    42,926
    :love::love::love:

    Added GOOGLE DRIVE link + MIRROR link! :p
     
  4. antoniojoseguizilini

    antoniojoseguizilini Well-Known Member

    Joined:
    Dec 2, 2016
    Messages:
    3,245
    Likes Received:
    302
    obrigado
     
    CELOBRAZiL likes this.
  5. multimediafm

    multimediafm Well-Known Member Archiver Donor

    Joined:
    Mar 27, 2014
    Messages:
    20,680
    Likes Received:
    2,267
    Thanks:)...
     
    CELOBRAZiL likes this.
  6. Wes Halliwell

    Wes Halliwell Well-Known Member

    Joined:
    Dec 17, 2014
    Messages:
    3,428
    Likes Received:
    197
    Thanks / Obrigadão
     
    CELOBRAZiL likes this.