CC [L] Coldplay - A Head Full Of Dreams (VH1HD-1080i-DD2.0-CELOBRAZiL) [CC]-HDMania

Discussion in 'VH1 HD' started by CELOBRAZiL, Sep 22, 2016.

  1. CELOBRAZiL

    CELOBRAZiL Well-Known Member Capper V . I . P. Donor

    Joined:
    Oct 2, 2013
    Messages:
    3,113
    Likes Received:
    9,015
    [L] Coldplay - A Head Full Of Dreams (VH1HD-1080i-DD2.0-CELOBRAZiL) [CC]-HDMania

    [​IMG]



    Format : MPEG-TS
    File size : 301 MiB
    Duration : 4mn 58s
    Overall bit rate mode : Variable
    Overall bit rate : 8 455 Kbps

    Video
    ID : 5408 (0x1520)
    Menu ID : 625 (0x271)
    Format : AVC
    Format/Info : Advanced Video Codec
    Format profile : [email protected]
    Format settings, CABAC : Yes
    Format settings, ReFrames : 3 frames
    Codec ID : 27
    Duration : 4mn 59s
    Bit rate : 7 649 Kbps
    Width : 1 920 pixels
    Height : 1 080 pixels
    Display aspect ratio : 16:9
    Frame rate : 29.970 fps
    Color space : YUV
    Chroma subsampling : 4:2:0
    Bit depth : 8 bits
    Scan type : MBAFF
    Scan order : Top Field First
    Bits/(Pixel*Frame) : 0.123
    Stream size : 273 MiB (91%)

    Audio
    ID : 5409 (0x1521)
    Menu ID : 625 (0x271)
    Format : AC-3
    Format/Info : Audio Coding 3
    Mode extension : CM (complete main)
    Format settings, Endianness : Big
    Codec ID : 129
    Duration : 4mn 59s
    Bit rate mode : Constant
    Bit rate : 384 Kbps
    Channel(s) : 2 channels
    Channel positions : Front: L R
    Sampling rate : 48.0 KHz
    Bit depth : 16 bits
    Compression mode : Lossy
    Stream size : 13.7 MiB (5%)
    Language : English

    Text #1
    ID : 5408 (0x1520)-CC1
    Menu ID : 625 (0x271)
    Format : EIA-608
    Muxing mode : SCTE 128 / DTVCC Transport
    Muxing mode, more info : Muxed in Video #1
    Duration : 4mn 59s
    Bit rate mode : Constant
    Stream size : 0.00 Byte (0%)

    Text #2
    ID : 5408 (0x1520)-1
    Menu ID : 625 (0x271)
    Format : EIA-708
    Muxing mode : SCTE 128 / DTVCC Transport
    Muxing mode, more info : Muxed in Video #1
    Duration : 4mn 59s
    Bit rate mode : Constant
    Stream size : 0.00 Byte (0%)

    Link(s):
    Hidden Content:
    You must either reply or click 'Like' to see the hidden information contained here.
     
    Last edited: Jan 9, 2017
    wertyu, gybr77, rhea and 2 others like this.
  2. Loading...


  3. CELOBRAZiL

    CELOBRAZiL Well-Known Member Capper V . I . P. Donor

    Joined:
    Oct 2, 2013
    Messages:
    3,113
    Likes Received:
    9,015
    I love so much Coldplay! :love::love::love: :)
     
    dgnio likes this.
  4. dgnio

    dgnio Well-Known Member

    Joined:
    Jul 7, 2014
    Messages:
    1,691
    Likes Received:
    343
    Yeah i am huge fan too
    Thank u very much
     
    CELOBRAZiL likes this.
  5. Dreamer

    Dreamer Lana Del Rey ♥ Capper V . I . P. Uploader

    Joined:
    Dec 4, 2014
    Messages:
    2,688
    Likes Received:
    3,376
    Thank you so much!
     
    CELOBRAZiL likes this.
  6. PedroCorrea

    PedroCorrea Active Member

    Joined:
    Aug 21, 2014
    Messages:
    358
    Likes Received:
    40
  7. coleman11v

    coleman11v New Member

    Joined:
    Oct 12, 2016
    Messages:
    1
    Likes Received:
    1
    thanks a lot!!!!
     
    CELOBRAZiL likes this.
  8. zemino

    zemino Member

    Joined:
    Apr 26, 2014
    Messages:
    121
    Likes Received:
    2
    thank you!
     
  9. Jrec

    Jrec Active Member

    Joined:
    May 11, 2016
    Messages:
    637
    Likes Received:
    29
    Thanks