WEB-RiP Zara Larsson - Look What You Done | Carina Bergfeldt 2021 SVT [1080]

Discussion in 'HD Live Performances' started by fstambuk, Mar 7, 2021.

  1. fstambuk

    fstambuk Follow me on instagram: idfrann :) V . I . P.

    Joined:
    Sep 21, 2014
    Messages:
    1,596
    Likes Received:
    4,814
    [​IMG]

    [​IMG]


    Code:
    Format                                   : MPEG-4
    Format profile                           : Base Media / Version 2
    Codec ID                                 : mp42 (mp42)
    File size                                : 165 MiB
    Duration                                 : 2mn 43s
    Overall bit rate mode                    : Variable
    Overall bit rate                         : 8 502 Kbps
    ContentType                              : Movie
    Encoded date                             : UTC 2021-03-07 19:52:41
    Tagged date                              : UTC 2021-03-07 19:52:41
    
    Video
    ID                                       : 1
    Format                                   : AVC
    Format/Info                              : Advanced Video Codec
    Format profile                           : High@L4
    Format settings                          : CABAC / 2 Ref Frames
    Format settings, CABAC                   : Yes
    Format settings, ReFrames                : 2 frames
    Muxing mode                              : Container profile=Baseline@3.0
    Codec ID                                 : avc1
    Codec ID/Info                            : Advanced Video Coding
    Duration                                 : 2mn 43s
    Bit rate mode                            : Variable
    Bit rate                                 : 8 337 Kbps
    Maximum bit rate                         : 768 Kbps
    Width                                    : 1 920 pixels
    Height                                   : 1 080 pixels
    Display aspect ratio                     : 16:9
    Frame rate mode                          : Constant
    Frame rate                               : 25.000 fps
    Color space                              : YUV
    Chroma subsampling                       : 4:2:0
    Bit depth                                : 8 bits
    Scan type                                : Progressive
    Bits/(Pixel*Frame)                       : 0.161
    Stream size                              : 162 MiB (98%)
    Language                                 : English
    Encoded date                             : UTC 1955-03-07 19:52:41
    Tagged date                              : UTC 1955-03-07 19:52:41
    Codec configuration box                  : avcC
    
    Audio
    ID                                       : 2
    Format                                   : AAC LC
    Format/Info                              : Advanced Audio Codec Low Complexity
    Codec ID                                 : mp4a-40-2
    Duration                                 : 2mn 43s
    Bit rate mode                            : Constant
    Bit rate                                 : 160 Kbps
    Channel(s)                               : 2 channels
    Channel layout                           : L R
    Sampling rate                            : 44.1 KHz
    Frame rate                               : 43.066 fps (1024 SPF)
    Compression mode                         : Lossy
    Stream size                              : 3.11 MiB (2%)
    Title                                    : Stereo
    Language                                 : English
    Default                                  : Yes
    Alternate group                          : 1
    Encoded date                             : UTC 1955-03-07 19:52:41
    Tagged date                              : UTC 1955-03-07 19:52:41


    Hidden Content:
    You must reply before you can see the hidden data contained here.
     
    tf135, iametor, jack_black and 2 others like this.
  2. Loading...


  3. multimediafm

    multimediafm Well-Known Member Archiver Donor

    Joined:
    Mar 27, 2014
    Messages:
    19,807
    Likes Received:
    2,011
  4. ThePixelFarm

    ThePixelFarm Livin' in a dream... Capper V . I . P. Uploader Archiver

    Joined:
    Aug 31, 2018
    Messages:
    3,097
    Likes Received:
    8,326
    Many thanks...
     
  5. MichelleBright

    MichelleBright Well-Known Member

    Joined:
    Jul 20, 2019
    Messages:
    1,762
    Likes Received:
    334
    Many thanks
     
  6. detroit1

    detroit1 Well-Known Member

    Joined:
    Jan 6, 2014
    Messages:
    4,556
    Likes Received:
    832
    thank you
     
  7. jack_black

    jack_black Well-Known Member

    Joined:
    Feb 16, 2014
    Messages:
    1,294
    Likes Received:
    1,107
    Thank you!
     
  8. abcdefg

    abcdefg Active Member

    Joined:
    Feb 6, 2018
    Messages:
    907
    Likes Received:
    97
    Thanks
     
  9. RariHeadnap

    RariHeadnap Member

    Joined:
    Oct 17, 2020
    Messages:
    90
    Likes Received:
    22
  10. Lineobird

    Lineobird Member

    Joined:
    Dec 23, 2018
    Messages:
    38
    Likes Received:
    10
    Thanks a lot
     
  11. KevinK

    KevinK Member

    Joined:
    Dec 5, 2020
    Messages:
    73
    Likes Received:
    8
    Fantastic thanks so much
     
  12. Antonio Barros

    Antonio Barros Well-Known Member

    Joined:
    Nov 14, 2013
    Messages:
    2,014
    Likes Received:
    501
    thank you so much!!!
     
  13. pedrospear

    pedrospear Active Member

    Joined:
    Aug 21, 2016
    Messages:
    624
    Likes Received:
    72
  14. hiagobenevenuto

    hiagobenevenuto Member

    Joined:
    Apr 8, 2018
    Messages:
    284
    Likes Received:
    22
  15. exterminador

    exterminador Well-Known Member

    Joined:
    Jul 3, 2016
    Messages:
    3,875
    Likes Received:
    443
  16. Bloodmother

    Bloodmother Member

    Joined:
    Jan 23, 2021
    Messages:
    79
    Likes Received:
    1
  17. frisby

    frisby Well-Known Member

    Joined:
    Nov 21, 2015
    Messages:
    2,173
    Likes Received:
    165
    thanks
     
  18. iametor

    iametor Well-Known Member

    Joined:
    Oct 15, 2014
    Messages:
    1,029
    Likes Received:
    89
    Thanks!
     
  19. withcap

    withcap Well-Known Member

    Joined:
    Oct 29, 2013
    Messages:
    3,763
    Likes Received:
    653
    Thank you!
     
  20. uminomiyako

    uminomiyako Well-Known Member

    Joined:
    May 28, 2016
    Messages:
    4,771
    Likes Received:
    315
  21. mf602320000

    mf602320000 Member

    Joined:
    Mar 15, 2019
    Messages:
    219
    Likes Received:
    9