SERIES Yo Soy Franky (Eu Sou Franky) - Season 1 1080p AMZN WEB-DL AAC2.0 H264-Aurino

Discussion in 'Cinema Center' started by aurinotorres, May 11, 2021.

  1. aurinotorres

    aurinotorres Member

    Joined:
    Mar 9, 2016
    Messages:
    53
    Likes Received:
    33
    [​IMG]

    Sofia Andrade (Paula Barreto) is a great scientist and works with robotics, is married, has a daughter named Clara (Maria Jose Pescador) and her husband Wilson Andrade (Jorge Lopez) is a self-help book writer. Sofia, for years, worked on a new robot, which would be called FR4NK13, known as Franky Andrade (Maria Gabriela de Faria). Franky is the largest project of EGG Enterprises. When the project finally ended, Franky was ready, Sofia sent to school to live on the side of human beings. Now, Franky will face every problem and, most importantly, protect his secret from everyone, but the most spoiled girl in school, Tamara Franco (Danielle Arciniegas), will not rest until she discovers Franky's secret. With her friends, Franky can fight all her problems and adapt to a world among human beings. Clara is a very mischievous girl, sweet Sofia is a great scientist, Wilson is a great lover and crazy about books and Franky is a human-looking robot, very intelligent, innocent and ready to help others. Tamara is always in love with Christian "Chris" Montero (Martin Barba), but Chris is in love with Franky, although he doesn't know her true secret. Paul Mejia (George Slebi) is a bored and bitter scientist who is envious of Sofia, so in an attempt to be better and create a new android, Roby (Eduardo Perez), although profound, Paul is kind and has a crush on Margarita , Chris' mother, he has always shown that you can be good, likes to copy Sofia's ideas and believes that bad luck is everywhere. Yo Soy Franky is a comedy story with a touch of romance and suspense with many teachings.

    General
    Unique ID : 328488557003970053037799509557082082529 (0xF7209846ED241909A23CCAFB12FC4CE1)
    Format : Matroska
    Format version : Version 4
    File size : 4.00 GiB
    Duration : 42 min 25 s
    Overall bit rate : 13.5 Mb/s
    Encoded date : UTC 2021-05-04 23:04:49
    Writing application : mkvmerge v55.0.0 ('Waiting For Space') 64-bit
    Writing library : libebml v1.4.2 + libmatroska v1.6.4

    Video
    ID : 1
    Format : AVC
    Format/Info : Advanced Video Codec
    Format profile : High@L4
    Format settings : CABAC / 4 Ref Frames
    Format settings, CABAC : Yes
    Format settings, Reference fra : 4 frames
    Codec ID : V_MPEG4/ISO/AVC
    Duration : 42 min 25 s
    Bit rate : 13.2 Mb/s
    Width : 1 920 pixels
    Height : 1 080 pixels
    Display aspect ratio : 16:9
    Frame rate mode : Constant
    Frame rate : 29.970 (30000/1001) FPS
    Color space : YUV
    Chroma subsampling : 4:2:0
    Bit depth : 8 bits
    Scan type : Progressive
    Bits/(Pixel*Frame) : 0.212
    Stream size : 3.91 GiB (98%)
    Default : Yes
    Forced : No
    Color range : Limited
    Color primaries : BT.709
    Transfer characteristics : BT.709
    Matrix coefficients : BT.709

    Audio #1
    ID : 2
    Format : AAC LC
    Format/Info : Advanced Audio Codec Low Complexity
    Codec ID : A_AAC-2
    Duration : 42 min 25 s
    Bit rate : 128 kb/s
    Channel(s) : 2 channels
    Channel layout : L R
    Sampling rate : 48.0 kHz
    Frame rate : 46.875 FPS (1024 SPF)
    Compression mode : Lossy
    Stream size : 38.8 MiB (1%)
    Title : Brazilian
    Language : Portuguese
    Default : Yes
    Forced : No

    Audio #2
    ID : 3
    Format : AAC LC
    Format/Info : Advanced Audio Codec Low Complexity
    Codec ID : A_AAC-2
    Duration : 42 min 25 s
    Bit rate : 192 kb/s
    Channel(s) : 2 channels
    Channel layout : L R
    Sampling rate : 48.0 kHz
    Frame rate : 46.875 FPS (1024 SPF)
    Compression mode : Lossy
    Stream size : 58.3 MiB (1%)
    Title : Latin American
    Language : Spanish
    Default : No
    Forced : No

    Screenshoots:
    [​IMG]
    [​IMG]
    [​IMG]
    [​IMG]
    Hidden Content:
    You must reply before you can see the hidden data contained here.
     
  2. Loading...


  3. Luis_Gustah

    Luis_Gustah New Member

    Joined:
    May 11, 2021
    Messages:
    1
    Likes Received:
    0
    Amava <3
     
  4. Megafox7

    Megafox7 Member

    Joined:
    May 10, 2019
    Messages:
    150
    Likes Received:
    13
    Thanks
     
  5. kpopanimefan

    kpopanimefan Active Member

    Joined:
    Aug 20, 2019
    Messages:
    385
    Likes Received:
    51
  6. Violetta

    Violetta Member

    Joined:
    May 12, 2020
    Messages:
    133
    Likes Received:
    3
    THANKKSS
     
  7. DenisSanchez

    DenisSanchez New Member

    Joined:
    Mar 7, 2021
    Messages:
    17
    Likes Received:
    1
    thanksss!
     
  8. ShareDrive

    ShareDrive Tutu

    Joined:
    Apr 29, 2021
    Messages:
    28
    Likes Received:
    5
  9. WZS

    WZS Member

    Joined:
    Sep 12, 2020
    Messages:
    83
    Likes Received:
    17
    Thanks! Really wish I knew Spanish, though. Absolutely loved the English 'I Am Frankie' adaptation.
     
  10. JorgeCDV

    JorgeCDV New Member

    Joined:
    May 10, 2020
    Messages:
    9
    Likes Received:
    1
    Thanks
     
  11. cory

    cory Member

    Joined:
    Mar 24, 2021
    Messages:
    153
    Likes Received:
    17
    Obrigado!
     
  12. bildebero

    bildebero New Member

    Joined:
    Nov 23, 2020
    Messages:
    17
    Likes Received:
    0
    Obrigado
     
  13. João.nas

    João.nas New Member

    Joined:
    May 4, 2021
    Messages:
    25
    Likes Received:
    0
    Obrigado!
     
  14. willnoxBR

    willnoxBR New Member

    Joined:
    May 12, 2021
    Messages:
    1
    Likes Received:
    0
    obrigado kk
     
  15. Jessibieber

    Jessibieber Member

    Joined:
    Feb 16, 2021
    Messages:
    27
    Likes Received:
    27
    Gracias, subiste la segunda tambien?
     
    aurinotorres likes this.
  16. aurinotorres

    aurinotorres Member

    Joined:
    Mar 9, 2016
    Messages:
    53
    Likes Received:
    33
    Sí, muy pronto!
     
    Junnior22 likes this.
  17. Jessibieber

    Jessibieber Member

    Joined:
    Feb 16, 2021
    Messages:
    27
    Likes Received:
    27
    Gracias =)
     
  18. TheTigger

    TheTigger Active Member

    Joined:
    Dec 24, 2018
    Messages:
    483
    Likes Received:
    71
    Merci for that show !
     
  19. Junnior22

    Junnior22 Member

    Joined:
    Jun 20, 2020
    Messages:
    209
    Likes Received:
    9
    thanksss
     
  20. archie1985

    archie1985 Member

    Joined:
    Dec 30, 2017
    Messages:
    218
    Likes Received:
    9
  21. newn9624

    newn9624 Member

    Joined:
    Mar 19, 2020
    Messages:
    212
    Likes Received:
    10