MOVIE X-Men.First.Class.2011.1080p.HULU.WEB-DL.DDP5.1.H.264-Samuel

Discussion in 'Cinema Center' started by Samuel, Feb 12, 2024.

  1. Samuel

    Samuel Well-Known Member Uploader Ripper

    Joined:
    Apr 12, 2016
    Threads:
    519
    Messages:
    2,130
    Likes Received:
    1,648
    X-Men: First Class
    [​IMG]
    Alternate Artwork 1 | Alternate Artwork 2 | Poster 1 | Poster 2 | Poster 3 | Thumbnail | Key Art

    Starring: James McAvoy, Michael Fassbender, Rose Byrne • Director: Matthew Vaughn
    PG-13 • Fantasy, Science Fiction, Action, Adventure, Superheroes • Movie • 2011
    5.1 • HD

    General
    Complete name : X-Men.First.Class.2011.1080p.HULU.WEB-DL.DDP5.1.H.264-Samuel.mkv
    Format : Matroska
    Format version : Version 4
    File size : 5.48 GiB
    Duration : 2 h 11 min
    Overall bit rate : 5 957 kb/s
    Frame rate : 23.976 FPS
    Encoded date : 2024-02-11 14:09:42 UTC
    Writing application : mkvmerge v82.0 ('I'm The President') 64-bit
    Writing library : libebml v1.4.5 + libmatroska v1.7.1

    Video
    ID : 1
    Format : AVC
    Format/Info : Advanced Video Codec
    Format profile : High@L4
    Format settings : CABAC / 4 Ref Frames
    Format settings, CABAC : Yes
    Format settings, Reference frames : 4 frames
    Codec ID : V_MPEG4/ISO/AVC
    Duration : 2 h 11 min
    Bit rate : 5 699 kb/s
    Width : 1 920 pixels
    Height : 1 080 pixels
    Display aspect ratio : 16:9
    Frame rate mode : Constant
    Frame rate : 23.976 (24000/1001) FPS
    Color space : YUV
    Chroma subsampling : 4:2:0
    Bit depth : 8 bits
    Scan type : Progressive
    Bits/(Pixel*Frame) : 0.115
    Stream size : 5.24 GiB (96%)
    Default : Yes
    Forced : No

    Audio
    ID : 2
    Format : E-AC-3
    Format/Info : Enhanced AC-3
    Commercial name : Dolby Digital Plus
    Codec ID : A_EAC3
    Duration : 2 h 11 min
    Bit rate mode : Constant
    Bit rate : 256 kb/s
    Channel(s) : 6 channels
    Channel layout : L R C LFE Ls Rs
    Sampling rate : 48.0 kHz
    Frame rate : 31.250 FPS (1536 SPF)
    Compression mode : Lossy
    Stream size : 241 MiB (4%)
    Language : English
    Service kind : Complete Main
    Default : Yes
    Forced : No

    Text
    ID : 3
    Format : UTF-8
    Codec ID : S_TEXT/UTF8
    Codec ID/Info : UTF-8 Plain Text
    Duration : 2 h 10 min
    Bit rate : 55 b/s
    Frame rate : 0.257 FPS
    Count of elements : 2006
    Stream size : 52.7 KiB (0%)
    Title : SDH
    Language : English
    Default : No
    Forced : No

    Menu
    02:04:24.020 : en:Credits

    Screenshots
    [​IMG]

    Download
    Hidden Content:
    You must reply before you can see the hidden data contained here.
     
    Go 101 likes this.
  2. Loading...


  3. Go 101

    Go 101 Active Member

    Joined:
    Jul 13, 2023
    Threads:
    15
    Messages:
    636
    Likes Received:
    82
    Thanks
    Yeah
     
  4. sunnyillion

    sunnyillion Well-Known Member

    Joined:
    Aug 26, 2020
    Threads:
    78
    Messages:
    708
    Likes Received:
    259
    Thank you @Samuel
    One of mt fav. show.
     
  5. Vincent99

    Vincent99 Member

    Joined:
    Jun 28, 2023
    Threads:
    0
    Messages:
    185
    Likes Received:
    2
  6. clarkd1486

    clarkd1486 Well-Known Member

    Joined:
    Dec 17, 2021
    Threads:
    0
    Messages:
    1,377
    Likes Received:
    51