WEB-RiP Wolf Alice - BBC Radio 1's Big Weekend Festival, UK, 2021 [1080p]

Discussion in 'HD Live Performances' started by caladan, Jul 31, 2021.

  1. caladan

    caladan Member

    Joined:
    Jul 3, 2016
    Messages:
    57
    Likes Received:
    7
    [​IMG]


    Setlist:
    1. Don't Delete the Kisses
    2. Smile
    3. Beautifully Unconventional
    4. Formidable Cool
    5. Bros
    6. The Last Man on Earth
    7. Giant Peach

    Media Info:
    General
    Complete name : C:\Work\Wolf Alice - BBC Radio 1's Big Weekend, UK, 2021\Wolf Alice - BBC Radio 1's Big Weekend, UK, 2021.mp4
    Format : MPEG-4
    Format profile : Base Media
    Codec ID : isom (isom/iso2/avc1/mp41)
    File size : 457 MiB
    Duration : 27 min 58 s
    Overall bit rate : 2 282 kb/s
    Writing application : Lavf58.38.101

    Video
    ID : 1
    Format : AVC
    Format/Info : Advanced Video Codec
    Format profile : High@L4
    Format settings : CABAC / 3 Ref Frames
    Format settings, CABAC : Yes
    Format settings, Reference frames : 3 frames
    Codec ID : avc1
    Codec ID/Info : Advanced Video Coding
    Duration : 27 min 58 s
    Bit rate : 2 146 kb/s
    Width : 1 920 pixels
    Height : 1 080 pixels
    Display aspect ratio : 16:9
    Frame rate mode : Constant
    Frame rate : 30.000 FPS
    Color space : YUV
    Chroma subsampling : 4:2:0
    Bit depth : 8 bits
    Scan type : Progressive
    Bits/(Pixel*Frame) : 0.034
    Stream size : 429 MiB (94%)
    Title : ISO Media file produced by Google Inc.
    Writing library : x264 core 155 r2901 7d0ff22
    Color range : Limited
    Color primaries : BT.709
    Transfer characteristics : BT.709
    Matrix coefficients : BT.709
    Codec configuration box : avcC

    Audio
    ID : 2
    Format : AAC LC
    Format/Info : Advanced Audio Codec Low Complexity
    Codec ID : mp4a-40-2
    Duration : 27 min 58 s
    Bit rate mode : Constant
    Bit rate : 128 kb/s
    Channel(s) : 2 channels
    Channel layout : L R
    Sampling rate : 44.1 kHz
    Frame rate : 43.066 FPS (1024 SPF)
    Compression mode : Lossy
    Stream size : 25.6 MiB (6%)
    Title : ISO Media file produced by Google Inc.
    Language : English
    Default : Yes
    Alternate group : 1

    Hidden Content:
    You must reply before you can see the hidden data contained here.
     
    rasputin likes this.
  2. Loading...


  3. SmartBeens

    SmartBeens Well-Known Member

    Joined:
    Oct 5, 2014
    Messages:
    1,385
    Likes Received:
    199
  4. Adaros

    Adaros Well-Known Member

    Joined:
    Jun 5, 2016
    Messages:
    1,055
    Likes Received:
    152
    Thanks
     
  5. rasputin

    rasputin Well-Known Member

    Joined:
    Dec 9, 2015
    Messages:
    2,016
    Likes Received:
    194
    stay safe
     
  6. apl3

    apl3 Well-Known Member

    Joined:
    Jun 11, 2017
    Messages:
    2,790
    Likes Received:
    285
    thanks
     
  7. JD_Blaxx1975

    JD_Blaxx1975 Active Member

    Joined:
    Jul 7, 2016
    Messages:
    376
    Likes Received:
    28
  8. LAMF86

    LAMF86 New Member

    Joined:
    May 25, 2021
    Messages:
    9
    Likes Received:
    2
    thanks!
     
  9. vita1ka73

    vita1ka73 Member

    Joined:
    Feb 22, 2017
    Messages:
    48
    Likes Received:
    7
    Thank you for sharing this video!
     
  10. Valdo

    Valdo Active Member

    Joined:
    May 18, 2015
    Messages:
    445
    Likes Received:
    25
    Thank you
     
  11. Okaycool!

    Okaycool! New Member

    Joined:
    Aug 20, 2019
    Messages:
    17
    Likes Received:
    0
    Thank you!
     
  12. Okaycool!

    Okaycool! New Member

    Joined:
    Aug 20, 2019
    Messages:
    17
    Likes Received:
    0
    Thank you! Great video!
     
  13. 1stb2s

    1stb2s Active Member

    Joined:
    Aug 24, 2019
    Messages:
    710
    Likes Received:
    55
    THANKS
     
  14. zentiva

    zentiva Member

    Joined:
    Apr 6, 2021
    Messages:
    51
    Likes Received:
    0
    Thanks
     
  15. rock10

    rock10 Member

    Joined:
    Sep 9, 2021
    Messages:
    81
    Likes Received:
    9