FEED Usher - Super Bowl LVIII Halftime Show FEED HDTV H264 1080i MP2,DolbyE-J Silver

Discussion in 'HD Live Performances' started by ilya2129, Feb 12, 2024.

  1. ilya2129

    ilya2129 Well-Known Member Capper Uploader Donor

    Joined:
    Nov 14, 2019
    Threads:
    495
    Messages:
    685
    Likes Received:
    13,812
    [​IMG]

    [​IMG] [​IMG] [​IMG] [​IMG] [​IMG] [​IMG]

    "My Way" (intro)
    "Caught Up" (with elements of "U Don't Have to Call" and "Superstar")
    "Love in This Club"
    "If I Ain't Got You" (with Alicia Keys)
    "My Boo" (with Alicia Keys)
    "Confessions Part II"
    "Burn" (with elements of "Nice & Slow")
    "U Got It Bad" (with H.E.R. and elements of "Bad Girl")
    "OMG" (with will.i.am)
    "Turn Down for What" (with Lil Jon)
    "Yeah!" (with Lil Jon, Ludacris and elements of "Get Low")
    Code:
    General
    ID                                       : 3 (0x3)
    Complete name                            : D:\Usher - Super Bowl LVIII Halftime Show FEED HDTV H264 1080i MP2,DolbyE-J Silver.ts
    Format                                   : MPEG-TS
    File size                                : 1.61 GiB
    Duration                                 : 13 min 23 s
    Overall bit rate mode                    : Variable
    Overall bit rate                         : 17.2 Mb/s
    Frame rate                               : 25.000 FPS
    
    Video
    ID                                       : 408 (0x198)
    Menu ID                                  : 1 (0x1)
    Format                                   : AVC
    Format/Info                              : Advanced Video Codec
    Format profile                           : Main@L4
    Format settings                          : CABAC / 3 Ref Frames
    Format settings, CABAC                   : Yes
    Format settings, Reference frames        : 3 frames
    Codec ID                                 : 27
    Duration                                 : 13 min 23 s
    Bit rate mode                            : Constant
    Bit rate                                 : 13.3 Mb/s
    Width                                    : 1 920 pixels
    Height                                   : 1 080 pixels
    Display aspect ratio                     : 16:9
    Frame rate                               : 25.000 FPS
    Color space                              : YUV
    Chroma subsampling                       : 4:2:0
    Bit depth                                : 8 bits
    Scan type                                : Interlaced
    Scan type, store method                  : Separated fields
    Scan order                               : Top Field First
    Bits/(Pixel*Frame)                       : 0.256
    Time code of first frame                 : 00:00:00:0000000000
    Stream size                              : 1.19 GiB (74%)
    Color range                              : Limited
    Color primaries                          : BT.709
    Transfer characteristics                 : BT.709
    Matrix coefficients                      : BT.709
    
    Audio #1
    ID                                       : 452 (0x1C4)
    Menu ID                                  : 1 (0x1)
    Format                                   : MPEG Audio
    Format version                           : Version 1
    Format profile                           : Layer 2
    Codec ID                                 : 3
    Duration                                 : 13 min 23 s
    Bit rate mode                            : Constant
    Bit rate                                 : 192 kb/s
    Channel(s)                               : 2 channels
    Sampling rate                            : 48.0 kHz
    Frame rate                               : 41.667 FPS (1152 SPF)
    Compression mode                         : Lossy
    Stream size                              : 18.4 MiB (1%)
    Language                                 : English
    Language, more info                      : Clean effects
    
    Audio #2
    ID                                       : 453 (0x1C5)
    Menu ID                                  : 1 (0x1)
    Format                                   : MPEG Audio
    Format version                           : Version 1
    Format profile                           : Layer 2
    Codec ID                                 : 3
    Duration                                 : 13 min 23 s
    Bit rate mode                            : Constant
    Bit rate                                 : 192 kb/s
    Channel(s)                               : 2 channels
    Sampling rate                            : 48.0 kHz
    Frame rate                               : 41.667 FPS (1152 SPF)
    Compression mode                         : Lossy
    Stream size                              : 18.4 MiB (1%)
    Language                                 : English
    Language, more info                      : Clean effects
    
    Audio #3
    ID                                       : 454 (0x1C6)-1
    Menu ID                                  : 1 (0x1)
    Format                                   : Dolby E
    Format settings                          : Little
    Muxing mode                              : SMPTE ST 302 / SMPTE ST 337
    Codec ID                                 : 6
    Duration                                 : 13 min 23 s
    Bit rate mode                            : Constant
    Bit rate                                 : 1 291 kb/s
    Channel(s)                               : 6 channels
    Channel layout                           : L C Ls X R LFE Rs X
    Sampling rate                            : 48.0 kHz
    Frame rate                               : 25.000 FPS (1920 SPF)
    Bit depth                                : 20 bits
    Stream size                              : 124 MiB (7%)
    Title                                    : Program 1
    Language                                 : English
    Language, more info                      : Clean effects
    
    Audio #4
    ID                                       : 454 (0x1C6)-2
    Menu ID                                  : 1 (0x1)
    Format                                   : Dolby E
    Format settings                          : Little
    Muxing mode                              : SMPTE ST 302 / SMPTE ST 337
    Codec ID                                 : 6
    Duration                                 : 13 min 23 s
    Bit rate mode                            : Constant
    Bit rate                                 : 505 kb/s
    Channel(s)                               : 2 channels
    Channel layout                           : X X X L X X X R
    Sampling rate                            : 48.0 kHz
    Frame rate                               : 25.000 FPS (1920 SPF)
    Bit depth                                : 20 bits
    Stream size                              : 48.3 MiB (3%)
    Title                                    : Program 2
    Language                                 : English
    Language, more info                      : Clean effects
    
    Audio #5
    ID                                       : 455 (0x1C7)
    Menu ID                                  : 1 (0x1)
    Format                                   : MPEG Audio
    Format version                           : Version 1
    Format profile                           : Layer 2
    Format settings                          : Dual mono
    Codec ID                                 : 3
    Duration                                 : 13 min 23 s
    Bit rate mode                            : Constant
    Bit rate                                 : 192 kb/s
    Channel(s)                               : 2 channels
    Sampling rate                            : 48.0 kHz
    Frame rate                               : 41.667 FPS (1152 SPF)
    Compression mode                         : Lossy
    Stream size                              : 18.4 MiB (1%)
    Language                                 : English
    Language, more info                      : Clean effects
    
    Audio #6
    ID                                       : 456 (0x1C8)
    Menu ID                                  : 1 (0x1)
    Format                                   : MPEG Audio
    Format version                           : Version 1
    Format profile                           : Layer 2
    Codec ID                                 : 3
    Duration                                 : 13 min 23 s
    Bit rate mode                            : Constant
    Bit rate                                 : 192 kb/s
    Channel(s)                               : 2 channels
    Sampling rate                            : 48.0 kHz
    Frame rate                               : 41.667 FPS (1152 SPF)
    Compression mode                         : Lossy
    Stream size                              : 18.4 MiB (1%)
    Language                                 : Russian
    Language, more info                      : Clean effects
    
    Audio #7
    ID                                       : 457 (0x1C9)
    Menu ID                                  : 1 (0x1)
    Format                                   : MPEG Audio
    Format version                           : Version 1
    Format profile                           : Layer 2
    Format settings                          : Dual mono
    Codec ID                                 : 3
    Duration                                 : 13 min 23 s
    Bit rate mode                            : Constant
    Bit rate                                 : 192 kb/s
    Channel(s)                               : 2 channels
    Sampling rate                            : 48.0 kHz
    Frame rate                               : 41.667 FPS (1152 SPF)
    Compression mode                         : Lossy
    Stream size                              : 18.4 MiB (1%)
    Language                                 : Russian
    Language, more info                      : Clean effects
    
    Audio #8
    ID                                       : 458 (0x1CA)
    Menu ID                                  : 1 (0x1)
    Format                                   : MPEG Audio
    Format version                           : Version 1
    Format profile                           : Layer 2
    Format settings                          : Dual mono
    Codec ID                                 : 3
    Duration                                 : 13 min 23 s
    Bit rate mode                            : Constant
    Bit rate                                 : 192 kb/s
    Channel(s)                               : 2 channels
    Sampling rate                            : 48.0 kHz
    Frame rate                               : 41.667 FPS (1152 SPF)
    Compression mode                         : Lossy
    Stream size                              : 18.4 MiB (1%)
    Language                                 : Russian
    Language, more info                      : Clean effects
    
    Audio #9
    ID                                       : 459 (0x1CB)
    Menu ID                                  : 1 (0x1)
    Format                                   : MPEG Audio
    Format version                           : Version 1
    Format profile                           : Layer 2
    Format settings                          : Dual mono
    Codec ID                                 : 3
    Duration                                 : 13 min 23 s
    Bit rate mode                            : Constant
    Bit rate                                 : 192 kb/s
    Channel(s)                               : 2 channels
    Sampling rate                            : 48.0 kHz
    Frame rate                               : 41.667 FPS (1152 SPF)
    Compression mode                         : Lossy
    Stream size                              : 18.4 MiB (1%)
    Language                                 : Russian
    Language, more info                      : Clean effects
    

    Hidden Content:
    You must reply before you can see the hidden data contained here.
     
  2. Loading...


  3. tf135

    tf135 Well-Known Member

    Joined:
    Nov 14, 2014
    Threads:
    0
    Messages:
    6,029
    Likes Received:
    475
    thanks
     
  4. P1956

    P1956 Well-Known Member

    Joined:
    Aug 18, 2014
    Threads:
    3
    Messages:
    4,854
    Likes Received:
    749
    thanks
     
  5. paliaga1991

    paliaga1991 Member

    Joined:
    Jun 26, 2022
    Threads:
    0
    Messages:
    292
    Likes Received:
    20
    Gracias
     
  6. murayan_k

    murayan_k Active Member

    Joined:
    Dec 12, 2016
    Threads:
    28
    Messages:
    523
    Likes Received:
    186
  7. AKDP90

    AKDP90 Well-Known Member

    Joined:
    Nov 19, 2022
    Threads:
    6
    Messages:
    2,551
    Likes Received:
    111
    thanks
     
  8. xxmxxcxx

    xxmxxcxx Member

    Joined:
    Feb 6, 2023
    Threads:
    2
    Messages:
    172
    Likes Received:
    15
    It’s a Torrent
     
  9. onlyarturo

    onlyarturo Active Member

    Joined:
    Nov 26, 2019
    Threads:
    0
    Messages:
    922
    Likes Received:
    50
    Than youu
     
  10. brianvip

    brianvip Well-Known Member

    Joined:
    Oct 2, 2014
    Threads:
    1
    Messages:
    2,587
    Likes Received:
    306
    gracias
     
  11. shown

    shown Member

    Joined:
    Mar 3, 2023
    Threads:
    0
    Messages:
    36
    Likes Received:
    0
    gracias
     
  12. jeremywho

    jeremywho Well-Known Member

    Joined:
    Dec 11, 2015
    Threads:
    0
    Messages:
    1,535
    Likes Received:
    255
    Thank you.
     
  13. JackSparrowFH

    JackSparrowFH Member

    Joined:
    Oct 3, 2021
    Threads:
    0
    Messages:
    157
    Likes Received:
    8
  14. panaceja56

    panaceja56 Active Member

    Joined:
    Jan 2, 2017
    Threads:
    0
    Messages:
    732
    Likes Received:
    59
  15. Bruno

    Bruno Well-Known Member

    Joined:
    Nov 3, 2013
    Threads:
    3
    Messages:
    4,216
    Likes Received:
    428
    many thx
     
  16. Genaro Reyes Rojas

    Genaro Reyes Rojas Member

    Joined:
    Jun 18, 2015
    Threads:
    0
    Messages:
    110
    Likes Received:
    5
    thank ypu sao much
     
  17. Rocka

    Rocka Member

    Joined:
    Feb 25, 2017
    Threads:
    1
    Messages:
    92
    Likes Received:
    10
    Thank you
     
  18. robenn

    robenn Well-Known Member

    Joined:
    May 29, 2014
    Threads:
    99
    Messages:
    1,332
    Likes Received:
    351
    Thanks
     
  19. robenn

    robenn Well-Known Member

    Joined:
    May 29, 2014
    Threads:
    99
    Messages:
    1,332
    Likes Received:
    351
    Is there a way to download it by something that isn’t torrent please ? @ilya2129 :)
     
  20. honiamam

    honiamam Well-Known Member

    Joined:
    Apr 1, 2016
    Threads:
    2
    Messages:
    2,174
    Likes Received:
    248
    Thank you
     
  21. wangyuqiang

    wangyuqiang Member

    Joined:
    Jul 21, 2016
    Threads:
    2
    Messages:
    286
    Likes Received:
    9