Travie McCoy feat. Bruno Mars - Billionaire BRIDGEHD 1080i HDTV MPA2.0 H.264-Olgold

Discussion in 'Bridge HD' started by CELOBRAZiL, Aug 6, 2021.

  1. CELOBRAZiL

    CELOBRAZiL Well-Known Member Capper V . I . P. Donor

    Joined:
    Oct 2, 2013
    Messages:
    13,990
    Likes Received:
    51,365
    Travie McCoy feat. Bruno Mars - Billionaire BRIDGEHD 1080i HDTV MPA2.0 H.264-Olgold

    [​IMG]



    Format : MPEG-TS
    File size : 209 MiB
    Duration : 3 min 29 s
    Overall bit rate mode : Variable
    Overall bit rate : 8 174 kb/s

    Video
    ID : 206 (0xCE)
    Menu ID : 2206 (0x89E)
    Format : AVC
    Format/Info : Advanced Video Codec
    Format profile : High@L4
    Format settings : CABAC / 4 Ref Frames
    Format settings, CABAC : Yes
    Format settings, Reference frames : 4 frames
    Codec ID : 27
    Duration : 3 min 28 s
    Bit rate : 7 576 kb/s
    Width : 1 920 pixels
    Height : 1 080 pixels
    Display aspect ratio : 16:9
    Frame rate : 25.000 FPS
    Standard : Component
    Color space : YUV
    Chroma subsampling : 4:2:0
    Bit depth : 8 bits
    Scan type : Interlaced
    Scan type, store method : Separated fields
    Scan order : Top Field First
    Bits/(Pixel*Frame) : 0.146
    Stream size : 189 MiB (90%)
    Color range : Limited
    Color primaries : BT.709
    Transfer characteristics : BT.709
    Matrix coefficients : BT.709

    Audio
    ID : 306 (0x132)
    Menu ID : 2206 (0x89E)
    Format : MPEG Audio
    Format version : Version 1
    Format profile : Layer 2
    Codec ID : 4
    Duration : 3 min 30 s
    Bit rate mode : Constant
    Bit rate : 192 kb/s
    Channel(s) : 2 channels
    Sampling rate : 48.0 kHz
    Frame rate : 41.667 FPS (1152 SPF)
    Compression mode : Lossy
    Delay relative to video : -820 ms
    Stream size : 4.82 MiB (2%)

    Menu
    ID : 106 (0x6A)
    Menu ID : 2206 (0x89E)
    Duration : 3 min 29 s
    List : 206 (0xCE) (AVC) / 306 (0x132) (MPEG Audio)


    Link(s):
    Hidden Content:
    You must either reply or click 'Like' to see the hidden information contained here.
     
    nguyentrankhaihung and Brungor like this.
  2. Loading...


  3. CELOBRAZiL

    CELOBRAZiL Well-Known Member Capper V . I . P. Donor

    Joined:
    Oct 2, 2013
    Messages:
    13,990
    Likes Received:
    51,365
    :love::love::love:

    Added GOOGLE DRIVE link + MIRROR link! :p
     
  4. Brungor

    Brungor From The Planet Glamtron

    Joined:
    Dec 9, 2015
    Messages:
    1,670
    Likes Received:
    1,311
    thank you CELO​
     
    CELOBRAZiL likes this.
  5. marco25

    marco25 Well-Known Member

    Joined:
    Oct 5, 2016
    Messages:
    2,804
    Likes Received:
    2,069
    Thanks
     
    CELOBRAZiL likes this.
  6. izzatnata02

    izzatnata02 Member

    Joined:
    Aug 14, 2021
    Messages:
    69
    Likes Received:
    0
  7. hemunshu

    hemunshu Member

    Joined:
    Feb 12, 2016
    Messages:
    648
    Likes Received:
    6
    fffffffff