Tiesto & Mabel - God Is A Dancer | (MCMHD-1080i-DD2.0-IboYLDz)-HDMania

Discussion in 'MCM & MCM Top HD' started by By.YLDz, Nov 22, 2019.

  1. By.YLDz

    By.YLDz Taylor Swift Fan.. Capper

    Joined:
    Oct 7, 2013
    Messages:
    766
    Likes Received:
    8,114
    CappeD IboYLDz

    [​IMG]
    [​IMG]
    [​IMG]
    [​IMG]
    [​IMG]
    [​IMG]
    [​IMG]

    Format : MPEG-TS
    File size : 133 MiB
    Duration : 2 min 48 s
    Overall bit rate mode : Variable
    Overall bit rate : 6 608 kb/s

    Video
    ID : 1410 (0x582)
    Menu ID : 8714 (0x220A)
    Format : AVC
    Format/Info : Advanced Video Codec
    Format profile : High@L4
    Format settings : CABAC / 4 Ref Frames
    Format settings, CABAC : Yes
    Format settings, Reference : 4 frames
    Codec ID : 27
    Duration : 2 min 48 s
    Bit rate : 6 088 kb/s
    Width : 1 920 pixels
    Height : 1 080 pixels
    Display aspect ratio : 16:9
    Frame rate : 25.000 FPS
    Standard : Component
    Color space : YUV
    Chroma subsampling : 4:2:0
    Bit depth : 8 bits
    Scan type : MBAFF
    Scan type, store method : Interleaved fields
    Scan order : Top Field First
    Bits/(Pixel*Frame) : 0.117
    Stream size : 122 MiB (92%)
    Color range : Limited
    Color primaries : BT.709
    Transfer characteristics : BT.709
    Matrix coefficients : BT.709

    Audio
    ID : 1421 (0x58D)
    Menu ID : 8714 (0x220A)
    Format : AC-3
    Format/Info : Audio Coding 3
    Commercial name : Dolby Digital
    Codec ID : 6
    Duration : 2 min 48 s
    Bit rate mode : Constant
    Bit rate : 192 kb/s
    Channel(s) : 2 channels
    Channel layout : L R
    Sampling rate : 48.0 kHz
    Frame rate : 31.250 FPS (1536 SPF)
    Bit depth : 16 bits
    Compression mode : Lossy
    Delay relative to video : -280 ms
    Stream size : 3.86 MiB (3%)
    Language : French
    Service kind : Complete Main


    Hidden Content:
    You must either reply or click 'Like' to see the hidden information contained here.
    Rar Pass: IboYLDz
     
    alexis38382, djrafik, BobbyM and 5 others like this.
  2. CELOBRAZiL

    CELOBRAZiL Well-Known Member Capper V . I . P. Donor

    Joined:
    Oct 2, 2013
    Messages:
    13,668
    Likes Received:
    49,729
    Thank you so much my friend! :)
     
    By.YLDz likes this.
  3. sebabea

    sebabea Active Member

    Joined:
    Dec 14, 2016
    Messages:
    434
    Likes Received:
    61
    mabel thnku
     
  4. rvden

    rvden Well-Known Member

    Joined:
    Apr 9, 2017
    Messages:
    1,005
    Likes Received:
    745
    Thank you!
     
  5. bigray72

    bigray72 Well-Known Member

    Joined:
    Jun 30, 2018
    Messages:
    1,206
    Likes Received:
    165
    thanks
     
  6. mazacar78

    mazacar78 Member

    Joined:
    May 21, 2015
    Messages:
    300
    Likes Received:
    14
    thank you
     
  7. Sauron56

    Sauron56 Member

    Joined:
    Jan 1, 2018
    Messages:
    64
    Likes Received:
    3
    Thanks
     
  8. taeweishin

    taeweishin @WE_THE_BOYZ

    Joined:
    Dec 25, 2019
    Messages:
    187
    Likes Received:
    29
  9. zhk1217

    zhk1217 Member

    Joined:
    Nov 18, 2020
    Messages:
    72
    Likes Received:
    5
    thank you
     
  10. noor.ansr

    noor.ansr Member

    Joined:
    Jul 9, 2015
    Messages:
    102
    Likes Received:
    4