Tiesto & KSHMR feat. Vassy - Secrets (MTVIdol-1080i-DD2.0)-Olgold

Discussion in 'MTV IDOL' started by Olgold, Aug 20, 2015.

  1. Olgold

    Olgold Well-Known Member Capper

    Joined:
    Aug 19, 2015
    Messages:
    436
    Likes Received:
    2,111
    [​IMG]
    General
    Format : MPEG-TS
    File size : 108 MiB
    Duration : 3mn 26s
    Overall bit rate mode : Variable
    Overall bit rate : 4 374 Kbps

    Video
    Format : AVC
    Format/Info : Advanced Video Codec
    Format profile : High@L4
    Format settings, CABAC : Yes
    Format settings, ReFrames : 4 frames
    Duration : 3mn 26s
    Bit rate : 3 964 Kbps
    Width : 1 920 pixels
    Height : 1 080 pixels
    Display aspect ratio : 16:9
    Frame rate : 25.000 fps
    Standard : Component
    Color space : YUV
    Chroma subsampling : 4:2:0
    Bit depth : 8 bits
    Scan type : MBAFF
    Scan order : Top Field First
    Bits/(Pixel*Frame) : 0.076
    Stream size : 97.8 MiB (91%)
    Encryption : Seca Mediaguard 1/2
    Color range : Limited

    Audio
    Format : AC-3
    Format/Info : Audio Coding 3
    Mode extension : CM (complete main)
    Format settings, Endianness : Big
    Duration : 3mn 26s
    Bit rate mode : Constant
    Bit rate : 192 Kbps
    Channel(s) : 2 channels
    Channel positions : Front: L R
    Sampling rate : 48.0 KHz
    Compression mode : Lossy
    Delay relative to video : -6ms
    Stream size : 4.74 MiB (4%)
    Language : French

    Hidden Content:
    You must reply before you can see the hidden data contained here.
     
  2. Hyrus

    Hyrus Aria/Sele-nator ~ Camilizer ~ Black Star ~ BLINK Donor

    Joined:
    Feb 9, 2015
    Messages:
    1,582
    Likes Received:
    1,909
    Thanks. I haven't heard this song yet. hope it's good:lol:
     
  3. Crusha

    Crusha Well-Known Member Capper V . I . P.

    Joined:
    Oct 15, 2014
    Messages:
    2,575
    Likes Received:
    4,492
    thank you
     
  4. rhea

    rhea Well-Known Member

    Joined:
    Jan 6, 2014
    Messages:
    12,281
    Likes Received:
    2,471
    thank you so much
     
  5. cero

    cero Member

    Joined:
    Nov 1, 2013
    Messages:
    166
    Likes Received:
    9
    cool song!!
     
  6. MCTR

    MCTR Active Member

    Joined:
    Feb 23, 2014
    Messages:
    365
    Likes Received:
    91
    thank you
     
  7. Dreamer

    Dreamer ♫ SUPER MODERATОR ♫ Staff Member Super Moderator V . I . P. Uploader

    Joined:
    Dec 4, 2014
    Messages:
    3,455
    Likes Received:
    15,056
    Thank you so much! :)
     
  8. Pavulon

    Pavulon Well-Known Member Donor

    Joined:
    Mar 22, 2016
    Messages:
    5,154
    Likes Received:
    1,835
    thanks
     
  9. tapions

    tapions Well-Known Member

    Joined:
    Aug 30, 2016
    Messages:
    1,314
    Likes Received:
    143
    gracias
     
  10. Zeeh

    Zeeh Rallyforrivers.org

    Joined:
    Mar 20, 2015
    Messages:
    754
    Likes Received:
    32
    Thank you
     
  11. rvden

    rvden Well-Known Member

    Joined:
    Apr 9, 2017
    Messages:
    1,005
    Likes Received:
    745
    Thanks
     
  12. JSmoove

    JSmoove Member

    Joined:
    Nov 27, 2013
    Messages:
    101
    Likes Received:
    3
    thank you!
     
  13. noriscout

    noriscout Active Member

    Joined:
    Apr 26, 2017
    Messages:
    592
    Likes Received:
    239
    Thanks, friendugan
     
  14. brownbradpitt613

    brownbradpitt613 Active Member

    Joined:
    Sep 3, 2017
    Messages:
    755
    Likes Received:
    34
    thanks!
     
  15. fachoandre

    fachoandre Member

    Joined:
    Apr 28, 2019
    Messages:
    179
    Likes Received:
    11
    thanks
     
  16. Nevyte

    Nevyte Member

    Joined:
    Dec 7, 2019
    Messages:
    59
    Likes Received:
    4
    kshmr the best thanks
     
  17. djrafik

    djrafik Member

    Joined:
    Jun 11, 2020
    Messages:
    73
    Likes Received:
    1
    thanks not working