The.Weeknd.&.Swedish.House.Mafia-Moth.To.A.Flame.2021.1080p.AM.WEB-DL.x264.AAC-bunny [217 MiB]

Discussion in 'Music Videos' started by bunny, Oct 22, 2021.

  1. bunny

    bunny bunny V . I . P.

    Joined:
    Sep 13, 2020
    Messages:
    1,489
    Likes Received:
    7,784
    [​IMG]
    Code:
    General
    Unique ID                                : 62486041626285695897077304234932368211 (0x2F025FB5C69CFCCEDD2AC2537D8AF353)
    Complete name                            : The.Weeknd.&.Swedish.House.Mafia-Moth.To.A.Flame.2021.1080p.AM.WEB-DL.x264.AAC-bunny.mkv
    Format                                   : Matroska
    Format version                           : Version 4 / Version 2
    File size                                : 217 MiB
    Duration                                 : 4 min 14 s
    Overall bit rate                         : 7 156 kb/s
    Movie name                               : The.Weeknd.&.Swedish.House.Mafia-Moth.To.A.Flame.2021.1080p.AM.WEB-DL.x264.AAC-bunny
    Encoded date                             : UTC 2021-10-22 11:03:03
    Writing application                      : mkvmerge v61.0.0 ('So') 64-bit
    Writing library                          : libebml v1.4.2 + libmatroska v1.6.4
    
    Video
    ID                                       : 1
    Format                                   : AVC
    Format/Info                              : Advanced Video Codec
    Format profile                           : High@L4
    Format settings                          : CABAC / 5 Ref Frames
    Format settings, CABAC                   : Yes
    Format settings, ReFrames                : 5 frames
    Codec ID                                 : V_MPEG4/ISO/AVC
    Duration                                 : 4 min 13 s
    Bit rate                                 : 6 885 kb/s
    Width                                    : 1 920 pixels
    Height                                   : 816 pixels
    Display aspect ratio                     : 2.35:1
    Frame rate mode                          : Constant
    Frame rate                               : 25.000 FPS
    Color space                              : YUV
    Chroma subsampling                       : 4:2:0
    Bit depth                                : 8 bits
    Scan type                                : Progressive
    Bits/(Pixel*Frame)                       : 0.176
    Stream size                              : 208 MiB (96%)
    Language                                 : English
    Default                                  : Yes
    Forced                                   : No
    Color range                              : Limited
    Color primaries                          : BT.709
    Transfer characteristics                 : BT.709
    Matrix coefficients                      : BT.709
    
    Audio
    ID                                       : 2
    Format                                   : AAC
    Format/Info                              : Advanced Audio Codec
    Format profile                           : LC
    Codec ID                                 : A_AAC-2
    Duration                                 : 4 min 14 s
    Bit rate                                 : 271 kb/s
    Channel(s)                               : 2 channels
    Channel positions                        : Front: L R
    Sampling rate                            : 48.0 kHz
    Frame rate                               : 46.875 FPS (1024 SPF)
    Compression mode                         : Lossy
    Stream size                              : 8.21 MiB (4%)
    Language                                 : English
    Default                                  : Yes
    Forced                                   : No
    
    Text
    ID                                       : 3
    Format                                   : UTF-8
    Codec ID                                 : S_TEXT/UTF8
    Codec ID/Info                            : UTF-8 Plain Text
    Duration                                 : 3 min 59 s
    Bit rate                                 : 59 b/s
    Count of elements                        : 41
    Stream size                              : 1.75 KiB (0%)
    Language                                 : English
    Default                                  : Yes
    Forced                                   : No
    
    
    
    Hidden Content:
    You must either reply or click 'Like' to see the hidden information contained here.
     
  2. Loading...


  3. speciald

    speciald Active Member

    Joined:
    Dec 18, 2015
    Messages:
    716
    Likes Received:
    75
    thanks
     
  4. silverwing13

    silverwing13 Active Member

    Joined:
    Jul 1, 2014
    Messages:
    688
    Likes Received:
    65
    Thank you!!
     
  5. nguyentrankhaihung

    nguyentrankhaihung Member

    Joined:
    Feb 12, 2021
    Messages:
    576
    Likes Received:
    24
  6. CELOBRAZiL

    CELOBRAZiL Well-Known Member Capper V . I . P. Donor

    Joined:
    Oct 2, 2013
    Messages:
    13,668
    Likes Received:
    49,735
    Thank you so much! :)
     
  7. Viitrex

    Viitrex Well-Known Member

    Joined:
    Mar 26, 2016
    Messages:
    1,147
    Likes Received:
    60
    thanks
     
  8. Brytho

    Brytho Active Member

    Joined:
    Jan 31, 2019
    Messages:
    795
    Likes Received:
    40
    thanks
     
  9. Mahmood

    Mahmood Member

    Joined:
    Aug 15, 2021
    Messages:
    121
    Likes Received:
    17
    thanks
     
  10. free2world

    free2world Member

    Joined:
    Apr 2, 2016
    Messages:
    417
    Likes Received:
    17
  11. manas

    manas Well-Known Member

    Joined:
    Aug 2, 2016
    Messages:
    1,111
    Likes Received:
    615
    yeeees
     
  12. saeed040404

    saeed040404 Well-Known Member

    Joined:
    Sep 19, 2017
    Messages:
    1,079
    Likes Received:
    97
  13. curg

    curg Well-Known Member

    Joined:
    Dec 6, 2013
    Messages:
    1,512
    Likes Received:
    62
    thank you
     
  14. Jaabir Peerally

    Jaabir Peerally New Member

    Joined:
    Oct 24, 2021
    Messages:
    8
    Likes Received:
    1
  15. Mayiti

    Mayiti Well-Known Member

    Joined:
    Aug 20, 2020
    Messages:
    1,807
    Likes Received:
    127
    Merci bien
     
  16. Fillipeeeeeee

    Fillipeeeeeee Active Member

    Joined:
    Jul 12, 2019
    Messages:
    200
    Likes Received:
    61
  17. JPGAmbrosino

    JPGAmbrosino Well-Known Member

    Joined:
    Jul 30, 2016
    Messages:
    5,876
    Likes Received:
    273
    txssssssssssssssssss
     
  18. miamia99

    miamia99 Well-Known Member

    Joined:
    Jun 18, 2019
    Messages:
    2,188
    Likes Received:
    72
  19. miamia99

    miamia99 Well-Known Member

    Joined:
    Jun 18, 2019
    Messages:
    2,188
    Likes Received:
    72
  20. Rahroh78

    Rahroh78 New Member

    Joined:
    Oct 26, 2021
    Messages:
    2
    Likes Received:
    0
    Hiw
    How Is the video
     
  21. antoniojoseguizilini

    antoniojoseguizilini Well-Known Member

    Joined:
    Dec 2, 2016
    Messages:
    3,915
    Likes Received:
    390