The Weeknd & Swedish House Mafia - Moth To A Flame [1080p Apple Music WEB-DL DTS-HD MA 5.1] (Audio from Dolby Atmos)

Discussion in 'Music Videos' started by RK94, Oct 22, 2021.

  1. RK94

    RK94 Active Member

    Joined:
    Feb 19, 2021
    Messages:
    186
    Likes Received:
    106
    The Weeknd & Swedish House Mafia - Moth To A Flame [1080p Apple Music WEB-DL DTS-HD MA 5.1] (Audio from Dolby Atmos version of the Track) - By RK✪

    Video Credits: @bunny

    Code:
     Media Info:
    Video
    ID                          : 1
    Format                      : AVC
    Format/Info                 : Advanced Video Codec
    Format profile              : High@L4
    Format settings             : CABAC / 5 Ref Frames
    Format settings, CABAC      : Yes
    Format settings, Reference  : 5 frames
    Codec ID                    : V_MPEG4/ISO/AVC
    Duration                    : 4 min 13 s
    Bit rate                    : 6 885 kb/s
    Width                       : 1 920 pixels
    Height                      : 816 pixels
    Display aspect ratio        : 2.35:1
    Frame rate mode             : Constant
    Frame rate                  : 25.000 FPS
    Color space                 : YUV
    Chroma subsampling          : 4:2:0
    Bit depth                   : 8 bits
    Scan type                   : Progressive
    Bits/(Pixel*Frame)          : 0.176
    Stream size                 : 208 MiB (60%)
    Language                    : English
    Default                     : Yes
    Forced                      : No
    Color range                 : Limited
    Color primaries             : BT.709
    Transfer characteristics    : BT.709
    Matrix coefficients         : BT.709
    Audio #1
    ID                          : 2
    Format                      : DTS XLL
    Format/Info                 : Digital Theater Systems
    Commercial name             : DTS-HD Master Audio
    Codec ID                    : A_DTS
    Duration                    : 4 min 13 s
    Bit rate mode               : Variable
    Bit rate                    : 4 288 kb/s
    Channel(s)                  : 6 channels
    Channel layout              : C L R Ls Rs LFE
    Sampling rate               : 48.0 kHz
    Frame rate                  : 93.750 FPS (512 SPF)
    Bit depth                   : 24 bits
    Compression mode            : Lossless
    Stream size                 : 130 MiB (37%)
    Language                    : English
    Default                     : Yes
    Forced                      : No
    Audio #2
    ID                          : 3
    Format                      : AAC LC
    Format/Info                 : Advanced Audio Codec Low Complexity
    Codec ID                    : A_AAC-2
    Duration                    : 4 min 14 s
    Bit rate                    : 271 kb/s
    Channel(s)                  : 2 channels
    Channel layout              : L R
    Sampling rate               : 48.0 kHz
    Frame rate                  : 46.875 FPS (1024 SPF)
    Compression mode            : Lossy
    Stream size                 : 8.21 MiB (2%)
    Language                    : English
    Default                     : No
    Forced                      : No
    Text
    ID                          : 4
    Format                      : UTF-8
    Codec ID                    : S_TEXT/UTF8
    Codec ID/Info               : UTF-8 Plain Text
    Duration                    : 3 min 59 s
    Bit rate                    : 59 b/s
    Count of elements           : 41
    Stream size                 : 1.75 KiB (0%)
    Language                    : English
    Default                     : Yes
    Forced                      : No
    
    Link:

    Hidden Content:
    You must reply before you can see the hidden data contained here.
    Hidden Content:
    You must reply before you can see the hidden data contained here.
     
  2. Loading...


  3. P1956

    P1956 Well-Known Member

    Joined:
    Aug 18, 2014
    Messages:
    2,073
    Likes Received:
    289
    thanks
     
  4. TheXohosT

    TheXohosT New Member

    Joined:
    Oct 13, 2021
    Messages:
    24
    Likes Received:
    2
  5. tarek

    tarek Active Member

    Joined:
    Jun 17, 2021
    Messages:
    385
    Likes Received:
    33
    Thanks
     
  6. alexstarstruck

    alexstarstruck Active Member

    Joined:
    Oct 7, 2020
    Messages:
    886
    Likes Received:
    50
  7. nguyentrankhaihung

    nguyentrankhaihung Member

    Joined:
    Feb 12, 2021
    Messages:
    576
    Likes Received:
    24
  8. sumon44

    sumon44 Member

    Joined:
    Dec 22, 2020
    Messages:
    593
    Likes Received:
    23
    thanks
     
  9. GalaxyPretzel

    GalaxyPretzel Member

    Joined:
    Sep 26, 2020
    Messages:
    43
    Likes Received:
    1
    Amazing, thank you!
     
  10. Meteora

    Meteora Member

    Joined:
    Jun 26, 2019
    Messages:
    77
    Likes Received:
    2
    Thanks.
     
  11. steviex

    steviex Active Member

    Joined:
    Oct 16, 2020
    Messages:
    824
    Likes Received:
    39
    thanks
     
  12. miquel12003

    miquel12003 Member

    Joined:
    Jul 18, 2021
    Messages:
    42
    Likes Received:
    4
  13. Mahmood

    Mahmood Member

    Joined:
    Aug 15, 2021
    Messages:
    121
    Likes Received:
    17
    thanks
     
  14. Timelord

    Timelord New Member

    Joined:
    Jun 10, 2021
    Messages:
    16
    Likes Received:
    1
  15. David96

    David96 Member

    Joined:
    Feb 9, 2018
    Messages:
    802
    Likes Received:
    16
    Thanks
     
  16. xiu-kun

    xiu-kun New Member

    Joined:
    Feb 13, 2021
    Messages:
    20
    Likes Received:
    1
    That is
     
  17. Julius

    Julius Member

    Joined:
    Dec 19, 2019
    Messages:
    153
    Likes Received:
    10
    t
    hnks
     
  18. manas

    manas Well-Known Member

    Joined:
    Aug 2, 2016
    Messages:
    1,111
    Likes Received:
    615
    yeeees
     
  19. saeed040404

    saeed040404 Well-Known Member

    Joined:
    Sep 19, 2017
    Messages:
    1,079
    Likes Received:
    97
  20. ADHDerby

    ADHDerby Member

    Joined:
    Jun 6, 2021
    Messages:
    38
    Likes Received:
    1
    Thanks!
     
  21. Jaabir Peerally

    Jaabir Peerally New Member

    Joined:
    Oct 24, 2021
    Messages:
    8
    Likes Received:
    1