FEED The Weeknd - Save Your Tears,2021 Brit Awards,11 May 2021(FEED-1080i-MPA2.0-@rt-v-k)-HDMania

Discussion in 'HD Live Performances' started by art-v-k, May 11, 2021.

  1. art-v-k

    art-v-k I don't save my records Capper V . I . P. Uploader

    Joined:
    Nov 1, 2013
    Messages:
    400
    Likes Received:
    22,172
    The Weeknd - Save Your Tears,2021 Brit Awards,11 May 2021(FEED-1080i-MPA2.0-@rt-v-k)-HDMania

    [​IMG] [​IMG] [​IMG]

    [​IMG] [​IMG] [​IMG]

    Format : MPEG-TS
    File size : 940 MiB
    Duration : 4 min 3 s
    Overall bit rate mode : Variable
    Overall bit rate : 32.4 Mb/s

    Video
    ID : 512 (0x200)
    Menu ID : 1 (0x1)
    Format : AVC
    Format/Info : Advanced Video Codec
    Format profile : High@L4.1
    Format settings : CABAC / 4 Ref Frames
    Format settings, CABAC : Yes
    Format settings, Reference frames : 4 frames
    Codec ID : 27
    Duration : 4 min 3 s
    Bit rate : 29.7 Mb/s
    Width : 1 920 pixels
    Height : 1 080 pixels
    Display aspect ratio : 16:9
    Frame rate : 25.000 FPS
    Color space : YUV
    Chroma subsampling : 4:2:0
    Bit depth : 8 bits
    Scan type : Interlaced
    Scan type, store method : Separated fields
    Scan order : Top Field First
    Bits/(Pixel*Frame) : 0.573
    Stream size : 864 MiB (92%)
    Color range : Limited
    Color primaries : BT.709
    Transfer characteristics : BT.709
    Matrix coefficients : BT.709

    Audio #1
    ID : 4112 (0x1010)
    Menu ID : 1 (0x1)
    Format : MPEG Audio
    Format version : Version 1
    Format profile : Layer 2
    Codec ID : 3
    Duration : 4 min 3 s
    Bit rate mode : Constant
    Bit rate : 384 kb/s
    Channel(s) : 2 channels
    Sampling rate : 48.0 kHz
    Frame rate : 41.667 FPS (1152 SPF)
    Compression mode : Lossy
    Delay relative to video : 111 ms
    Stream size : 11.2 MiB (1%)
    Language : English

    Audio #2
    ID : 4128 (0x1020)
    Menu ID : 1 (0x1)
    Format : MPEG Audio
    Format version : Version 1
    Format profile : Layer 2
    Codec ID : 3
    Duration : 4 min 3 s
    Bit rate mode : Constant
    Bit rate : 384 kb/s
    Channel(s) : 2 channels
    Sampling rate : 48.0 kHz
    Frame rate : 41.667 FPS (1152 SPF)
    Compression mode : Lossy
    Delay relative to video : 31 ms
    Stream size : 11.2 MiB (1%)
    Language : English

    Audio #3
    ID : 4144 (0x1030)
    Menu ID : 1 (0x1)
    Format : MPEG Audio
    Format version : Version 1
    Format profile : Layer 2
    Codec ID : 3
    Duration : 4 min 3 s
    Bit rate mode : Constant
    Bit rate : 256 kb/s
    Channel(s) : 2 channels
    Sampling rate : 48.0 kHz
    Frame rate : 41.667 FPS (1152 SPF)
    Compression mode : Lossy
    Delay relative to video : 31 ms
    Stream size : 7.44 MiB (1%)
    Language : English

    Menu
    ID : 32 (0x20)
    Menu ID : 1 (0x1)
    Duration : 4 min 3 s
    List : 512 (0x200) (AVC) / 4112 (0x1010) (MPEG Audio, English) / 4128 (0x1020) (MPEG Audio, English) / 4144 (0x1030) (MPEG Audio, English)
    Language : / English / English / English
    Maximum bit rate : 200000000

    ~~~~~~~~~~~~~~~~

    Hidden Content:
    You must either reply or click 'Like' to see the hidden information contained here.
     
    Smartjoon, eks22, Meteora and 41 others like this.
  2. Loading...


  3. blessyourbody

    blessyourbody Member

    Joined:
    Jul 14, 2020
    Messages:
    321
    Likes Received:
    5
  4. thegreatcharles

    thegreatcharles Active Member

    Joined:
    Dec 3, 2020
    Messages:
    351
    Likes Received:
    25
  5. Dream66

    Dream66 Well-Known Member

    Joined:
    Jan 24, 2016
    Messages:
    1,313
    Likes Received:
    368
    Thank you! :victory:
     
  6. detroit1

    detroit1 Well-Known Member

    Joined:
    Jan 6, 2014
    Messages:
    4,606
    Likes Received:
    856
    thank you
     
  7. apple66

    apple66 Active Member

    Joined:
    May 1, 2015
    Messages:
    590
    Likes Received:
    45
    thanks, thanks
     
  8. steviex

    steviex Member

    Joined:
    Oct 16, 2020
    Messages:
    436
    Likes Received:
    7
    thank you
     
  9. dersullana2020

    dersullana2020 Active Member

    Joined:
    Apr 26, 2020
    Messages:
    423
    Likes Received:
    30
  10. rcj

    rcj Well-Known Member

    Joined:
    May 11, 2016
    Messages:
    2,064
    Likes Received:
    220
    Thank U!
     
  11. P1956

    P1956 Well-Known Member

    Joined:
    Aug 18, 2014
    Messages:
    1,481
    Likes Received:
    168
    thanks
     
  12. azamusic

    azamusic Well-Known Member Capper

    Joined:
    Dec 6, 2013
    Messages:
    1,554
    Likes Received:
    662
    thank you
     
  13. CELOBRAZiL

    CELOBRAZiL Well-Known Member Capper V . I . P. Donor

    Joined:
    Oct 2, 2013
    Messages:
    11,358
    Likes Received:
    40,449
    Thank you so much my friend! :)
     
  14. dongrikim

    dongrikim Member

    Joined:
    Feb 28, 2018
    Messages:
    59
    Likes Received:
    1
    Thank you
     
  15. tapions

    tapions Well-Known Member

    Joined:
    Aug 30, 2016
    Messages:
    1,290
    Likes Received:
    132
    gracias
     
  16. Houson

    Houson Well-Known Member

    Joined:
    Apr 5, 2014
    Messages:
    1,113
    Likes Received:
    92
    thanks
     
  17. eros_17

    eros_17 Active Member

    Joined:
    Mar 23, 2016
    Messages:
    476
    Likes Received:
    38
    thank you.
     
  18. Dat Truong

    Dat Truong Active Member

    Joined:
    Feb 16, 2016
    Messages:
    227
    Likes Received:
    44
  19. thatoneperson

    thatoneperson Member

    Joined:
    Mar 9, 2021
    Messages:
    109
    Likes Received:
    6
  20. Unusualmen

    Unusualmen Active Member

    Joined:
    Jan 29, 2017
    Messages:
    538
    Likes Received:
    36
  21. xoxxxoooxo

    xoxxxoooxo Well-Known Member

    Joined:
    May 28, 2018
    Messages:
    464
    Likes Received:
    811