WEB-RiP The.Show.2021.1080p.WEB.H264-BIGDOC

Discussion in 'Documentaries' started by melodie, Oct 13, 2021.

  1. melodie

    melodie Well-Known Member V . I . P. Uploader

    Joined:
    Dec 29, 2020
    Messages:
    1,945
    Likes Received:
    7,413
    The.Show.2021.1080p.WEB.H264-BIGDOC
    [​IMG]
    [​IMG]
    Code:
    General
    Unique ID                   : 252446389922092813529434336732845600060 (0xBDEB67FAC78D34B38717AE76A5EE6D3C)
    Complete name               : the.show.2021.1080p.web.h264-bigdoc.mkv
    Format                      : Matroska
    Format version              : Version 4
    File size                   : 5.81 GiB
    Duration                    : 1 h 33 min
    Overall bit rate            : 8 866 kb/s
    Writing application         : mkvmerge v49.0.0 ('Sick Of Losing Soulmates') 64-bit
    Writing library             : libebml v1.4.0 + libmatroska v1.6.1
    
    Video
    ID                          : 1
    Format                      : AVC
    Format/Info                 : Advanced Video Codec
    Format profile              : High@L4
    Format settings             : CABAC / 4 Ref Frames
    Format settings, CABAC      : Yes
    Format settings, Reference  : 4 frames
    Codec ID                    : V_MPEG4/ISO/AVC
    Duration                    : 1 h 33 min
    Bit rate mode               : Constant
    Bit rate                    : 8 050 kb/s
    Nominal bit rate            : 10 000 kb/s
    Width                       : 1 920 pixels
    Height                      : 1 080 pixels
    Display aspect ratio        : 16:9
    Frame rate mode             : Constant
    Frame rate                  : 23.976 (24000/1001) FPS
    Color space                 : YUV
    Chroma subsampling          : 4:2:0
    Bit depth                   : 8 bits
    Scan type                   : Progressive
    Bits/(Pixel*Frame)          : 0.162
    Stream size                 : 5.27 GiB (91%)
    Default                     : Yes
    Forced                      : No
    Color range                 : Limited
    Color primaries             : BT.709
    Transfer characteristics    : BT.709
    Matrix coefficients         : BT.709
    
    Audio
    ID                          : 2
    Format                      : E-AC-3
    Format/Info                 : Enhanced AC-3
    Commercial name             : Dolby Digital Plus
    Codec ID                    : A_EAC3
    Duration                    : 1 h 33 min
    Bit rate mode               : Constant
    Bit rate                    : 640 kb/s
    Channel(s)                  : 6 channels
    Channel layout              : L R C LFE Ls Rs
    Sampling rate               : 48.0 kHz
    Frame rate                  : 31.250 FPS (1536 SPF)
    Compression mode            : Lossy
    Stream size                 : 429 MiB (7%)
    Language                    : English
    Service kind                : Complete Main
    Default                     : Yes
    Forced                      : No
    
    Text
    ID                          : 3
    Format                      : UTF-8
    Codec ID                    : S_TEXT/UTF8
    Codec ID/Info               : UTF-8 Plain Text
    Title                       : English
    Language                    : English
    Default                     : No
    Forced                      : No
    
    Hidden Content:
    You must either reply or click 'Like' to see the hidden information contained here.
     
  2. Loading...


  3. multimediafm

    multimediafm Well-Known Member Archiver Donor

    Joined:
    Mar 27, 2014
    Messages:
    21,378
    Likes Received:
    2,629
    Thanks:)
     
    melodie likes this.
  4. CELOBRAZiL

    CELOBRAZiL Well-Known Member Capper V . I . P. Donor

    Joined:
    Oct 2, 2013
    Messages:
    13,149
    Likes Received:
    47,637
    Thanks! :)
     
  5. KingdomHearts1

    KingdomHearts1 Member

    Joined:
    Jun 4, 2020
    Messages:
    34
    Likes Received:
    1
  6. dangminh9999

    dangminh9999 Member

    Joined:
    Aug 19, 2014
    Messages:
    417
    Likes Received:
    22