WEB-RiP The Real Housewives of Potomac - S06E20-21 - Reunion Part 3-4 (2021) 1080p AMZN WEB-DL DD+ 2.0 H.264-NTb

Discussion in 'Interviews / TV shows / Others' started by melodie, Nov 29, 2021.

  1. melodie

    melodie Super Moderator Staff Member Super Moderator Uploader V . I . P.

    Joined:
    Dec 29, 2020
    Messages:
    2,402
    Likes Received:
    12,704
    [​IMG]
    [​IMG]
    Code:
    Format                      : Matroska
    Format version              : Version 4
    File size                   : 3.01 GiB
    Duration                    : 43 min 5 s
    Overall bit rate            : 10.0 Mb/s
    Writing application         : mkvmerge v58.0.0 ('Supper's Ready') 64-bit
    Writing library             : libebml v1.4.2 + libmatroska v1.6.4
    
    Video
    ID                          : 1
    Format                      : AVC
    Format/Info                 : Advanced Video Codec
    Format profile              : High@L4
    Format settings             : CABAC / 4 Ref Frames
    Format settings, CABAC      : Yes
    Format settings, Reference  : 4 frames
    Codec ID                    : V_MPEG4/ISO/AVC
    Duration                    : 43 min 5 s
    Bit rate mode               : Constant
    Bit rate                    : 10 000 kb/s
    Width                       : 1 920 pixels
    Height                      : 1 080 pixels
    Display aspect ratio        : 16:9
    Frame rate mode             : Constant
    Frame rate                  : 23.976 (24000/1001) FPS
    Color space                 : YUV
    Chroma subsampling          : 4:2:0
    Bit depth                   : 8 bits
    Scan type                   : Progressive
    Bits/(Pixel*Frame)          : 0.201
    Stream size                 : 2.94 GiB (98%)
    Default                     : Yes
    Forced                      : No
    Color range                 : Limited
    Color primaries             : BT.709
    Transfer characteristics    : BT.709
    Matrix coefficients         : BT.709
    
    Audio
    ID                          : 2
    Format                      : E-AC-3
    Format/Info                 : Enhanced AC-3
    Commercial name             : Dolby Digital Plus
    Codec ID                    : A_EAC3
    Duration                    : 43 min 5 s
    Bit rate mode               : Constant
    Bit rate                    : 224 kb/s
    Channel(s)                  : 2 channels
    Channel layout              : L R
    Sampling rate               : 48.0 kHz
    Frame rate                  : 31.250 FPS (1536 SPF)
    Compression mode            : Lossy
    Stream size                 : 69.0 MiB (2%)
    Language                    : English
    Service kind                : Complete Main
    Default                     : Yes
    Forced                      : No
    
    Text #1
    ID                          : 3
    Format                      : UTF-8
    Codec ID                    : S_TEXT/UTF8
    Codec ID/Info               : UTF-8 Plain Text
    Duration                    : 42 min 59 s
    Bit rate                    : 139 b/s
    Count of elements           : 1268
    Stream size                 : 43.8 KiB (0%)
    Language                    : English
    Default                     : No
    Forced                      : No
    
    Text #2
    ID                          : 4
    Format                      : UTF-8
    Codec ID                    : S_TEXT/UTF8
    Codec ID/Info               : UTF-8 Plain Text
    Duration                    : 43 min 3 s
    Bit rate                    : 140 b/s
    Count of elements           : 1296
    Stream size                 : 44.4 KiB (0%)
    Title                       : SDH
    Language                    : English
    Default                     : No
    Forced                      : No
    
    Format                      : Matroska
    Format version              : Version 4
    File size                   : 3.01 GiB
    Duration                    : 43 min 6 s
    Overall bit rate            : 10.0 Mb/s
    Writing application         : mkvmerge v58.0.0 ('Supper's Ready') 64-bit
    Writing library             : libebml v1.4.2 + libmatroska v1.6.4
    
    Video
    ID                          : 1
    Format                      : AVC
    Format/Info                 : Advanced Video Codec
    Format profile              : High@L4
    Format settings             : CABAC / 4 Ref Frames
    Format settings, CABAC      : Yes
    Format settings, Reference  : 4 frames
    Codec ID                    : V_MPEG4/ISO/AVC
    Duration                    : 43 min 5 s
    Bit rate mode               : Constant
    Bit rate                    : 10 000 kb/s
    Width                       : 1 920 pixels
    Height                      : 1 080 pixels
    Display aspect ratio        : 16:9
    Frame rate mode             : Constant
    Frame rate                  : 23.976 (24000/1001) FPS
    Color space                 : YUV
    Chroma subsampling          : 4:2:0
    Bit depth                   : 8 bits
    Scan type                   : Progressive
    Bits/(Pixel*Frame)          : 0.201
    Stream size                 : 2.94 GiB (98%)
    Default                     : Yes
    Forced                      : No
    Color range                 : Limited
    Color primaries             : BT.709
    Transfer characteristics    : BT.709
    Matrix coefficients         : BT.709
    
    Audio
    ID                          : 2
    Format                      : E-AC-3
    Format/Info                 : Enhanced AC-3
    Commercial name             : Dolby Digital Plus
    Codec ID                    : A_EAC3
    Duration                    : 43 min 5 s
    Bit rate mode               : Constant
    Bit rate                    : 224 kb/s
    Channel(s)                  : 2 channels
    Channel layout              : L R
    Sampling rate               : 48.0 kHz
    Frame rate                  : 31.250 FPS (1536 SPF)
    Compression mode            : Lossy
    Stream size                 : 69.0 MiB (2%)
    Language                    : English
    Service kind                : Complete Main
    Default                     : Yes
    Forced                      : No
    
    Text #1
    ID                          : 3
    Format                      : UTF-8
    Codec ID                    : S_TEXT/UTF8
    Codec ID/Info               : UTF-8 Plain Text
    Duration                    : 42 min 59 s
    Bit rate                    : 151 b/s
    Count of elements           : 1355
    Stream size                 : 47.9 KiB (0%)
    Language                    : English
    Default                     : No
    Forced                      : No
    
    Text #2
    ID                          : 4
    Format                      : UTF-8
    Codec ID                    : S_TEXT/UTF8
    Codec ID/Info               : UTF-8 Plain Text
    Duration                    : 43 min 6 s
    Bit rate                    : 153 b/s
    Count of elements           : 1374
    Stream size                 : 48.6 KiB (0%)
    Title                       : SDH
    Language                    : English
    Default                     : No
    Forced                      : No
    Hidden Content:
    You must either reply or click 'Like' to see the hidden information contained here.
     
  2. Loading...


  3. Minajfav

    Minajfav Active Member

    Joined:
    Jul 2, 2018
    Messages:
    829
    Likes Received:
    62
    thanks
     
  4. shootcrave

    shootcrave Member

    Joined:
    Apr 27, 2021
    Messages:
    38
    Likes Received:
    7
    thank you
     
  5. shootcrave

    shootcrave Member

    Joined:
    Apr 27, 2021
    Messages:
    38
    Likes Received:
    7
    video doesn’t work anymore
     
  6. nickiminajthebest

    nickiminajthebest Nicki Minaj

    Joined:
    Aug 16, 2016
    Messages:
    351
    Likes Received:
    486
  7. nickiminaj21

    nickiminaj21 NM FANCLUB

    Joined:
    Jun 10, 2017
    Messages:
    128
    Likes Received:
    8
  8. luismoreno

    luismoreno Member

    Joined:
    Jan 23, 2017
    Messages:
    235
    Likes Received:
    10
    Thank you
     
  9. nickiiconic

    nickiiconic Active Member

    Joined:
    Jul 17, 2019
    Messages:
    590
    Likes Received:
    52
  10. Rebelde25

    Rebelde25 Active Member

    Joined:
    Sep 30, 2020
    Messages:
    782
    Likes Received:
    69
    Thanks
     
  11. new.728

    new.728 Member

    Joined:
    Feb 6, 2021
    Messages:
    72
    Likes Received:
    4
    Thanks
     
  12. onikasfantasy

    onikasfantasy Member

    Joined:
    Aug 19, 2020
    Messages:
    347
    Likes Received:
    19
  13. matteoc

    matteoc Member

    Joined:
    Jan 18, 2021
    Messages:
    126
    Likes Received:
    15
    tysm. bye
     
  14. joaovitormsisne

    joaovitormsisne Member

    Joined:
    Feb 6, 2021
    Messages:
    214
    Likes Received:
    9