WEB-RiP The Lights Before Christmas (2160p) (HDR) (Amazon) (WEB-DL) (DDP5.1) (2020) = [Pilot]

Discussion in 'Interviews / TV shows / Others' started by UnitedReleases, Mar 7, 2021.

  1. UnitedReleases

    UnitedReleases Well-Known Member

    Joined:
    Jan 10, 2016
    Messages:
    738
    Likes Received:
    1,331
    The Lights Before Christmas (2160p) (HDR) (Amazon) (WEB-DL) (DDP5.1) (2020) = [Pilot]

    Plot:
    Amid the chaos holiday season, slow down and invite light into your life with a festive treat of mesmerizing holiday luster and luminescence.

    [​IMG]
    General
    Complete name : The Lights Before Christmas (2160p) (HDR) (Amazon) (WEB-DL) (DDP5.1) (2020) = [Pilot].mkv
    Format : Matroska
    Format version : Version 4
    File size : 6.53 GiB
    Duration : 1 h 0 min
    Overall bit rate : 15.6 Mb/s
    Movie name : The Lights Before Christmas (2160p) (HDR) (Amazon) (WEB-DL) (DDP5.1) (2020) = [Pilot]
    Encoded date : UTC 2021-03-07 22:37:55
    Writing application : mkvmerge v53.0.0 ('Fool's Gold') 64-bit
    Writing library : libebml v1.4.1 + libmatroska v1.6.2

    Video
    ID : 1
    Format : HEVC
    Format/Info : High Efficiency Video Coding
    Format profile : Main 10@L5@Main
    HDR format : SMPTE ST 2094 App 4, Version 1, HDR10+ Profile B compatible
    Codec ID : V_MPEGH/ISO/HEVC
    Duration : 1 h 0 min
    Bit rate : 14.9 Mb/s
    Width : 3840 pixels
    Height : 2160 pixels
    Display aspect ratio : 16:9
    Frame rate mode : Constant
    Frame rate : 25.000 FPS
    Color space : YUV
    Chroma subsampling : 4:2:0
    Bit depth : 10 bits
    Bits/(Pixel*Frame) : 0.072
    Stream size : 6.26 GiB (96%)
    Title : The Lights Before Christmas (2160p) (HDR) (Amazon) (WEB-DL) (DDP5.1) (2020) = [Pilot]
    Language : English
    Default : Yes
    Forced : Yes
    Color range : Limited
    Color primaries : BT.2020
    Transfer characteristics : PQ
    Matrix coefficients : BT.2020 non-constant
    Mastering display color primar : Display P3
    Mastering display luminance : min: 0.0001 cd/m2, max: 1000 cd/m2
    Maximum Content Light Level : 1480 cd/m2
    Maximum Frame-Average Light Le : 449 cd/m2

    Audio
    ID : 2
    Format : E-AC-3
    Format/Info : Enhanced AC-3
    Commercial name : Dolby Digital Plus
    Codec ID : A_EAC3
    Duration : 1 h 0 min
    Bit rate mode : Constant
    Bit rate : 640 kb/s
    Channel(s) : 6 channels
    Channel layout : L R C LFE Ls Rs
    Sampling rate : 48.0 kHz
    Frame rate : 31.250 FPS (1536 SPF)
    Compression mode : Lossy
    Stream size : 275 MiB (4%)
    Title : DDP5.1
    Language : English
    Service kind : Complete Main
    Default : Yes
    Forced : Yes

    Enjoy :)

    Please Keep this File Name when uploading Elsewhere

    Thank Pilot for this Release :)
     
    Last edited: Mar 8, 2021
  2. Loading...


  3. UnitedReleases

    UnitedReleases Well-Known Member

    Joined:
    Jan 10, 2016
    Messages:
    738
    Likes Received:
    1,331
    Enjoy, Upload to Rarbg,filelist, hdbits etc but keep filename as: The Lights Before Christmas (2160p) (HDR) (Amazon) (WEB-DL) (DDP5.1) (2020) = [Pilot]