HDTV The Killers feat. Bruce Springsteen - Dustland - Today [Jun-15-2021] NBC 1080i HDTV DD5.1 MPEG2 ilya2129-HDMania [CC]

Discussion in 'HD Live Performances' started by CELOBRAZiL, Jul 21, 2021.

  1. CELOBRAZiL

    CELOBRAZiL Well-Known Member Capper V . I . P. Donor

    Joined:
    Oct 2, 2013
    Messages:
    11,961
    Likes Received:
    42,926
    The Killers feat. Bruce Springsteen - Dustland - Today [Jun-15-2021] NBC 1080i HDTV DD5.1 MPEG2 ilya2129-HDMania [CC]

    [​IMG]



    Format : MPEG-TS
    File size : 762 MiB
    Duration : 10 min 50 s
    Overall bit rate mode : Variable
    Overall bit rate : 9 826 kb/s
    Law rating : None

    Video
    ID : 1005 (0x3ED)
    Menu ID : 1 (0x1)
    Format : MPEG Video
    Format version : Version 2
    Format profile : Main@High
    Format settings : BVOP
    Format settings, BVOP : Yes
    Format settings, Matrix : Default
    Format settings, GOP : Variable
    Format settings, picture structure : Frame
    Codec ID : 2
    Duration : 10 min 50 s
    Bit rate mode : Variable
    Bit rate : 8 759 kb/s
    Maximum bit rate : 80.0 Mb/s
    Width : 1 920 pixels
    Height : 1 080 pixels
    Display aspect ratio : 16:9
    Active Format Description : Full frame 16:9 image
    Frame rate : 29.970 (30000/1001) FPS
    Color space : YUV
    Chroma subsampling : 4:2:0
    Bit depth : 8 bits
    Scan type : Interlaced
    Scan order : Top Field First
    Compression mode : Lossy
    Bits/(Pixel*Frame) : 0.141
    Time code of first frame : 00:00:00;00
    Time code source : Group of pictures header
    Stream size : 679 MiB (89%)

    Audio #1
    ID : 1010 (0x3F2)
    Menu ID : 1 (0x1)
    Format : AC-3
    Format/Info : Audio Coding 3
    Commercial name : Dolby Digital
    Codec ID : 129
    Duration : 10 min 50 s
    Bit rate mode : Constant
    Bit rate : 384 kb/s
    Channel(s) : 6 channels
    Channel layout : L R C LFE Ls Rs
    Sampling rate : 48.0 kHz
    Frame rate : 31.250 FPS (1536 SPF)
    Compression mode : Lossy
    Delay relative to video : 25 ms
    Stream size : 29.8 MiB (4%)
    Language : English
    Service kind : Complete Main

    Audio #2
    ID : 7543 (0x1D77)
    Menu ID : 1 (0x1)
    Format : AC-3
    Format/Info : Audio Coding 3
    Commercial name : Dolby Digital
    Codec ID : 129
    Duration : 10 min 50 s
    Bit rate mode : Constant
    Bit rate : 192 kb/s
    Channel(s) : 2 channels
    Channel layout : L R
    Sampling rate : 48.0 kHz
    Frame rate : 31.250 FPS (1536 SPF)
    Compression mode : Lossy
    Delay relative to video : 3 ms
    Stream size : 14.9 MiB (2%)
    Language : Spanish
    Service kind : Complete Main

    Text #1
    ID : 1005 (0x3ED)-CC1
    Menu ID : 1 (0x1)
    Format : EIA-608
    Muxing mode : A/53 / DTVCC Transport
    Muxing mode, more info : Muxed in Video #1
    Duration : 10 min 50 s
    Bit rate mode : Constant
    Stream size : 0.00 Byte (0%)
    CaptionServiceName : CC1

    Text #2
    ID : 1005 (0x3ED)-1
    Menu ID : 1 (0x1)
    Format : EIA-708
    Muxing mode : A/53 / DTVCC Transport
    Muxing mode, more info : Muxed in Video #1
    Duration : 10 min 50 s
    Bit rate mode : Constant
    Stream size : 0.00 Byte (0%)


    Link(s):
    Hidden Content:
    You must either reply or click 'Like' to see the hidden information contained here.
     
  2. Loading...


  3. CELOBRAZiL

    CELOBRAZiL Well-Known Member Capper V . I . P. Donor

    Joined:
    Oct 2, 2013
    Messages:
    11,961
    Likes Received:
    42,926
    :love::love::love:

    Added GOOGLE DRIVE link + MIRROR link! :p
     
  4. hollowhills45

    hollowhills45 Active Member

    Joined:
    Aug 30, 2016
    Messages:
    541
    Likes Received:
    53
    thanks
     
    CELOBRAZiL likes this.
  5. multimediafm

    multimediafm Well-Known Member Archiver Donor

    Joined:
    Mar 27, 2014
    Messages:
    20,680
    Likes Received:
    2,267
    Thanks:cool:
     
    CELOBRAZiL likes this.
  6. rhea

    rhea Well-Known Member

    Joined:
    Jan 6, 2014
    Messages:
    11,856
    Likes Received:
    2,328
    thanks
     
    CELOBRAZiL likes this.
  7. biomechanoid

    biomechanoid New Member

    Joined:
    Dec 22, 2020
    Messages:
    17
    Likes Received:
    8