WEB-RiP The Killers - Dying Breed (Live from the Top of 30 Rock) - The Tonight Show Starring Jimmy Fallon [Sep-23-2021] PCOK 1080p WEB-DL

Discussion in 'HD Live Performances' started by melodie, Sep 24, 2021.

  1. melodie

    melodie Well-Known Member V . I . P. Uploader

    Joined:
    Dec 29, 2020
    Messages:
    1,946
    Likes Received:
    7,417
    [​IMG]
    [​IMG]
    [​IMG]
    [​IMG]
    [​IMG]
    [​IMG]
    [​IMG]
    [​IMG]
    [​IMG]

    Format : Matroska
    Format version : Version 2
    File size : 304 MiB
    Duration : 5 min 23 s
    Overall bit rate : 7 890 kb/s
    Writing application : Lavf54.63.104
    Writing library : Lavf54.63.104

    Video
    ID : 1
    Format : AVC
    Format/Info : Advanced Video Codec
    Format profile : High@L4
    Format settings : CABAC / 4 Ref Frames
    Format settings, CABAC : Yes
    Format settings, Reference : 4 frames
    Codec ID : V_MPEG4/ISO/AVC
    Duration : 5 min 23 s
    Bit rate : 7 541 kb/s
    Width : 1 920 pixels
    Height : 1 080 pixels
    Display aspect ratio : 16:9
    Frame rate mode : Constant
    Frame rate : 29.970 (30000/1001) FPS
    Color space : YUV
    Chroma subsampling : 4:2:0
    Bit depth : 8 bits
    Scan type : Progressive
    Bits/(Pixel*Frame) : 0.121
    Stream size : 290 MiB (96%)
    Default : No
    Forced : No

    Audio
    ID : 2
    Format : E-AC-3
    Format/Info : Enhanced AC-3
    Commercial name : Dolby Digital Plus
    Codec ID : A_EAC3
    Duration : 5 min 23 s
    Bit rate mode : Constant
    Bit rate : 192 kb/s
    Channel(s) : 6 channels
    ChannelLayout_Original : L R C LFE Ls Rs
    Sampling rate : 48.0 kHz
    Frame rate : 31.250 FPS (1536 SPF)
    Compression mode : Lossy
    Stream size : 7.40 MiB (2%)
    Language : English
    Service kind : Complete Main
    Default : Yes
    Forced : No

    Hidden Content:
    You must either reply or click 'Like' to see the hidden information contained here.
     
    JacksonCage, blondi, apl3 and 3 others like this.
  2. Loading...


  3. detroit1

    detroit1 Well-Known Member

    Joined:
    Jan 6, 2014
    Messages:
    4,747
    Likes Received:
    922
    thank you. Hope you can get both performances. They did 2 songs
     
  4. ManuelLopez5

    ManuelLopez5 Active Member

    Joined:
    Jun 7, 2014
    Messages:
    876
    Likes Received:
    102
    thank you :victory:
     
  5. manhunter

    manhunter Well-Known Member

    Joined:
    Jun 8, 2016
    Messages:
    1,523
    Likes Received:
    297
    THANK YOU!!!
     
  6. multimediafm

    multimediafm Well-Known Member Archiver Donor

    Joined:
    Mar 27, 2014
    Messages:
    21,381
    Likes Received:
    2,631
  7. gybr77

    gybr77 Member

    Joined:
    Dec 6, 2015
    Messages:
    108
    Likes Received:
    21
    thank you !!!
     
  8. blondi

    blondi Member

    Joined:
    Mar 2, 2017
    Messages:
    38
    Likes Received:
    3
    thanks