CC The Beatles - Can't Buy Me Love PARAMOUNTHD 1080i HDTV DD2.0 H.264 CELOBRAZiL-HDMania [CC]

Discussion in 'PARAMOUNT' started by CELOBRAZiL, Jun 27, 2017.

  1. CELOBRAZiL

    CELOBRAZiL Well-Known Member Capper V . I . P. Donor

    Joined:
    Oct 2, 2013
    Messages:
    13,166
    Likes Received:
    47,682
    The Beatles - Can't Buy Me Love PARAMOUNTHD 1080i HDTV DD2.0 H.264 CELOBRAZiL-HDMania [CC]

    [​IMG]



    Format : MPEG-TS
    File size : 113 MiB
    Duration : 2mn 19s
    Overall bit rate mode : Variable
    Overall bit rate : 6 795 Kbps

    Video
    ID : 2360 (0x938)
    Menu ID : 5030 (0x13A6)
    Format : AVC
    Format/Info : Advanced Video Codec
    Format profile : High@L4
    Format settings, CABAC : Yes
    Format settings, ReFrames : 3 frames
    Codec ID : 27
    Duration : 2mn 21s
    Bit rate : 6 265 Kbps
    Width : 1 920 pixels
    Height : 1 080 pixels
    Display aspect ratio : 16:9
    Frame rate : 29.970 fps
    Color space : YUV
    Chroma subsampling : 4:2:0
    Bit depth : 8 bits
    Scan type : MBAFF
    Scan order : Top Field First
    Bits/(Pixel*Frame) : 0.101
    Stream size : 106 MiB (94%)

    Audio
    ID : 2324 (0x914)
    Menu ID : 5030 (0x13A6)
    Format : AC-3
    Format/Info : Audio Coding 3
    Mode extension : CM (complete main)
    Format settings, Endianness : Big
    Codec ID : 129
    Duration : 2mn 21s
    Bit rate mode : Constant
    Bit rate : 192 Kbps
    Channel(s) : 2 channels
    Channel positions : Front: L R
    Sampling rate : 48.0 KHz
    Bit depth : 16 bits
    Compression mode : Lossy
    Stream size : 3.25 MiB (3%)
    Language : English

    Text #1
    ID : 2360 (0x938)-CC1
    Menu ID : 5030 (0x13A6)
    Format : EIA-608
    Muxing mode : SCTE 128 / DTVCC Transport
    Muxing mode, more info : Muxed in Video #1
    Duration : 2mn 21s
    Bit rate mode : Constant
    Stream size : 0.00 Byte (0%)

    Text #2
    ID : 2360 (0x938)-1
    Menu ID : 5030 (0x13A6)
    Format : EIA-708
    Muxing mode : SCTE 128 / DTVCC Transport
    Muxing mode, more info : Muxed in Video #1
    Duration : 2mn 21s
    Bit rate mode : Constant
    Stream size : 0.00 Byte (0%)

    Link(s):
    Hidden Content:
    You must either reply or click 'Like' to see the hidden information contained here.
     
  2. CELOBRAZiL

    CELOBRAZiL Well-Known Member Capper V . I . P. Donor

    Joined:
    Oct 2, 2013
    Messages:
    13,166
    Likes Received:
    47,682
  3. rowlinglooni

    rowlinglooni Active Member

    Joined:
    Mar 21, 2017
    Messages:
    524
    Likes Received:
    46
    thanks
     
    CELOBRAZiL likes this.
  4. rhea

    rhea Well-Known Member

    Joined:
    Jan 6, 2014
    Messages:
    12,064
    Likes Received:
    2,398
    thanks
     
    CELOBRAZiL likes this.
  5. ElMali

    ElMali Well-Known Member

    Joined:
    Nov 6, 2017
    Messages:
    630
    Likes Received:
    658
    thanks
     
    CELOBRAZiL likes this.
  6. zu2010

    zu2010 Member

    Joined:
    Feb 28, 2014
    Messages:
    328
    Likes Received:
    14
    Thank!
     
    CELOBRAZiL likes this.
  7. Vjeans

    Vjeans Well-Known Member V . I . P.

    Joined:
    May 10, 2014
    Messages:
    2,162
    Likes Received:
    5,494
    Thank you!
     
    CELOBRAZiL likes this.
  8. juanxo14

    juanxo14 Active Member

    Joined:
    Apr 17, 2018
    Messages:
    886
    Likes Received:
    84
    Thank!
     
    CELOBRAZiL likes this.
  9. CristianMatias

    CristianMatias Next Generations

    Joined:
    Sep 17, 2016
    Messages:
    1,386
    Likes Received:
    467
    Gracias
     
    CELOBRAZiL likes this.
  10. Satya

    Satya Active Member

    Joined:
    Jul 17, 2019
    Messages:
    461
    Likes Received:
    114
    Obrigado
     
    CELOBRAZiL likes this.
  11. bubisan78945

    bubisan78945 Member

    Joined:
    Feb 18, 2020
    Messages:
    227
    Likes Received:
    4
    gracias
     
    CELOBRAZiL likes this.
  12. radsen

    radsen Member

    Joined:
    Mar 14, 2021
    Messages:
    381
    Likes Received:
    13
    thanks
     
  13. vico22

    vico22 Member

    Joined:
    Jan 16, 2021
    Messages:
    741
    Likes Received:
    3
    gracias