WEB-RiP Taylor Swift - Interview (The Late Show with Stephen Colbert - 2021.04.13) 1080p-WEB H264-JEBAITED

Discussion in 'Interviews / TV shows / Others' started by Magenta, Apr 14, 2021.

  1. Magenta

    Magenta Well-Known Member V . I . P. Uploader

    Joined:
    Dec 15, 2015
    Messages:
    1,786
    Likes Received:
    11,140
    [​IMG]
    [​IMG]
    [​IMG]
    [​IMG]
    [​IMG]
    [​IMG]
    Video
    ID : 1
    Format : AVC
    Format/Info : Advanced Video Codec
    Format profile : High@L4
    Format settings, CABAC : Yes
    Format settings, RefFrames : 4 frames
    Codec ID : V_MPEG4/ISO/AVC
    Duration : 7 min 30 s
    Bit rate : 4 500 kb/s
    Width : 1 920 pixels
    Height : 1 080 pixels
    Display aspect ratio : 16:9
    Frame rate mode : Constant
    Frame rate : 29.970 (30000/1001) FPS
    Color space : YUV
    Chroma subsampling : 4:2:0
    Bit depth : 8 bits
    Scan type : Progressive
    Bits/(Pixel*Frame) : 0.072
    Stream size : 241 MiB (97%)
    Default : Yes
    Forced : No

    Audio
    ID : 2
    Format : AAC
    Format/Info : Advanced Audio Codec
    Format profile : LC
    Codec ID : A_AAC
    Duration : 7 min 30 s
    Bit rate : 125 kb/s
    Channel(s) : 2 channels
    Channel positions : Front: L R
    Sampling rate : 48.0 kHz
    Frame rate : 46.875 FPS (1024 SPF)
    Compression mode : Lossy
    Delay relative to video : 7 ms
    Stream size : 6.70 MiB (3%)
    Language : English
    Default : Yes
    Forced : No

    Text
    ID : 3
    Format : UTF-8
    Codec ID : S_TEXT/UTF8
    Codec ID/Info : UTF-8 Plain Text
    Duration : 7 min 29 s
    Bit rate : 103 b/s
    Count of elements : 147
    Stream size : 5.70 KiB (0%)
    Language : English
    Default : No
    Forced : No
    Capper: JEBAITED. Cut by me.

    Link: G-Drive
    Hidden Content:
    You must either reply or click 'Like' to see the hidden information contained here.
     
  2. Loading...


  3. theclimb

    theclimb Well-Known Member

    Joined:
    Dec 16, 2014
    Messages:
    2,103
    Likes Received:
    1,028
    Thanks for Taylor! :D:love:
     
    onceandagain likes this.
  4. kedy

    kedy Active Member

    Joined:
    Nov 24, 2020
    Messages:
    358
    Likes Received:
    145
    thanks
     
    onceandagain likes this.
  5. onceandagain

    onceandagain Active Member

    Joined:
    May 19, 2020
    Messages:
    348
    Likes Received:
    121
    Many thanks
     
  6. bellastory

    bellastory Active Member

    Joined:
    Sep 16, 2020
    Messages:
    340
    Likes Received:
    201
    This is new! Thanks
     
    onceandagain likes this.
  7. lightmyway

    lightmyway Active Member

    Joined:
    Oct 7, 2020
    Messages:
    312
    Likes Received:
    124
  8. storeofdreams

    storeofdreams Active Member

    Joined:
    Dec 20, 2020
    Messages:
    306
    Likes Received:
    95
    Great! thanks
     
  9. KatyHDfan

    KatyHDfan Active Member

    Joined:
    Jun 25, 2019
    Messages:
    341
    Likes Received:
    137
    Thanks a lot.
     
  10. danesim

    danesim Active Member

    Joined:
    May 20, 2020
    Messages:
    322
    Likes Received:
    105
    Taylor....
     
  11. Shakira

    Shakira Active Member

    Joined:
    Jan 4, 2019
    Messages:
    321
    Likes Received:
    126
    gracias
     
  12. timbe

    timbe Active Member

    Joined:
    Nov 22, 2020
    Messages:
    362
    Likes Received:
    122
    thanks
     
  13. kimsoohyun

    kimsoohyun Active Member

    Joined:
    May 19, 2020
    Messages:
    283
    Likes Received:
    124
    Thank u.
     
  14. mvmaster

    mvmaster Active Member

    Joined:
    Oct 19, 2020
    Messages:
    311
    Likes Received:
    103
    Thank you.
     
  15. blankspaces

    blankspaces Member

    Joined:
    May 8, 2020
    Messages:
    106
    Likes Received:
    6
  16. Lesmo

    Lesmo Active Member Archiver

    Joined:
    Mar 15, 2017
    Messages:
    493
    Likes Received:
    181
    Thanks
     
  17. videohigh

    videohigh Active Member

    Joined:
    May 19, 2020
    Messages:
    533
    Likes Received:
    192
  18. videohigh

    videohigh Active Member

    Joined:
    May 19, 2020
    Messages:
    533
    Likes Received:
    192
  19. danesim

    danesim Active Member

    Joined:
    May 20, 2020
    Messages:
    322
    Likes Received:
    105
    Loved 'Hey Stephen' jokes
     
    theclimb and timbe like this.
  20. CottonCandyDress

    CottonCandyDress Member

    Joined:
    Aug 13, 2018
    Messages:
    478
    Likes Received:
    22
  21. Bruno

    Bruno Well-Known Member

    Joined:
    Nov 3, 2013
    Messages:
    3,337
    Likes Received:
    339
    many thx