MASTER Shy'm - IL FAUT VIVRE [MASTER 1080] idfrann!

Discussion in 'MASTER & MASTER RIP' started by fstambuk, Jul 21, 2021.

  1. fstambuk

    fstambuk Follow me on instagram: idfrann :) V . I . P.

    Joined:
    Sep 21, 2014
    Messages:
    1,990
    Likes Received:
    6,185
    [​IMG]

    Code:
    Format                                   : MPEG-4
    Format profile                           : Base Media / Version 2
    Codec ID                                 : mp42 (mp42/mp41)
    File size                                : 413 MiB
    Duration                                 : 3 min 44 s
    Overall bit rate mode                    : Variable
    Overall bit rate                         : 15.4 Mb/s
    Encoded date                             : UTC 2015-09-28 17:52:43
    Tagged date                              : UTC 2015-09-28 17:52:57
    TIM                                      : 00:00:00:00
    TSC                                      : 25
    TSZ                                      : 1
    
    Video
    ID                                       : 1
    Format                                   : AVC
    Format/Info                              : Advanced Video Codec
    Format profile                           : Main@L4.1
    Format settings                          : CABAC / 3 Ref Frames
    Format settings, CABAC                   : Yes
    Format settings, Reference frames        : 3 frames
    Format settings, GOP                     : M=4, N=25
    Codec ID                                 : avc1
    Codec ID/Info                            : Advanced Video Coding
    Duration                                 : 3 min 44 s
    Bit rate                                 : 15.1 Mb/s
    Width                                    : 1 920 pixels
    Height                                   : 1 080 pixels
    Display aspect ratio                     : 16:9
    Frame rate mode                          : Constant
    Frame rate                               : 25.000 FPS
    Standard                                 : PAL
    Color space                              : YUV
    Chroma subsampling                       : 4:2:0
    Bit depth                                : 8 bits
    Scan type                                : Progressive
    Bits/(Pixel*Frame)                       : 0.291
    Stream size                              : 404 MiB (98%)
    Language                                 : English
    Encoded date                             : UTC 2015-09-28 17:52:43
    Tagged date                              : UTC 2015-09-28 17:52:43
    Color range                              : Limited
    Color primaries                          : BT.709
    Transfer characteristics                 : BT.709
    Matrix coefficients                      : BT.709
    Codec configuration box                  : avcC
    
    Audio
    ID                                       : 2
    Format                                   : AAC LC
    Format/Info                              : Advanced Audio Codec Low Complexity
    Codec ID                                 : mp4a-40-2
    Duration                                 : 3 min 44 s
    Source duration                          : 3 min 44 s
    Bit rate mode                            : Variable
    Bit rate                                 : 317 kb/s
    Maximum bit rate                         : 455 kb/s
    Channel(s)                               : 2 channels
    Channel layout                           : L R
    Sampling rate                            : 48.0 kHz
    Frame rate                               : 46.875 FPS (1024 SPF)
    Compression mode                         : Lossy
    Stream size                              : 8.50 MiB (2%)
    Source stream size                       : 8.51 MiB (2%)
    Language                                 : English
    Encoded date                             : UTC 2015-09-28 17:52:43
    Tagged date                              : UTC 2015-09-28 17:52:43


    Hidden Content:
    You must reply before you can see the hidden data contained here.
     
    tf135 likes this.
  2. Loading...


  3. Honglong

    Honglong Well-Known Member

    Joined:
    Feb 6, 2020
    Messages:
    1,243
    Likes Received:
    76
    thanks
     
  4. Mayiti

    Mayiti Well-Known Member

    Joined:
    Aug 20, 2020
    Messages:
    1,510
    Likes Received:
    78
    Merci pour ce clip français
     
  5. tf135

    tf135 Well-Known Member

    Joined:
    Nov 14, 2014
    Messages:
    5,275
    Likes Received:
    334
    thanks
     
  6. abcdefg

    abcdefg Well-Known Member

    Joined:
    Feb 6, 2018
    Messages:
    1,116
    Likes Received:
    113
    thanks
     
  7. kana3245

    kana3245 Well-Known Member

    Joined:
    Aug 15, 2016
    Messages:
    1,651
    Likes Received:
    88
    thank you
     
  8. relichunterdr

    relichunterdr Member

    Joined:
    Mar 23, 2021
    Messages:
    324
    Likes Received:
    17