CC Sheryl Crow - Tomorrow Never Dies PARAMOUNTHD 1080i HDTV DD2.0 H.264 CELOBRAZiL [CC]

Discussion in 'PARAMOUNT' started by CELOBRAZiL, Jun 19, 2020.

  1. CELOBRAZiL

    CELOBRAZiL Well-Known Member Capper V . I . P. Donor

    Joined:
    Oct 2, 2013
    Messages:
    12,761
    Likes Received:
    45,858
    Sheryl Crow - Tomorrow Never Dies PARAMOUNTHD 1080i HDTV DD2.0 H.264 CELOBRAZiL [CC]

    [​IMG]



    Format : MPEG-TS
    File size : 221 MiB
    Duration : 4 min 16 s
    Overall bit rate mode : Variable
    Overall bit rate : 7 223 kb/s

    Video
    ID : 4096 (0x1000)
    Menu ID : 658 (0x292)
    Format : AVC
    Format/Info : Advanced Video Codec
    Format profile : High@L4
    Format settings : CABAC / 3 Ref Frames
    Format settings, CABAC : Yes
    Format settings, Reference frames : 3 frames
    Format settings, GOP : M=3, N=30
    Codec ID : 27
    Duration : 4 min 16 s
    Bit rate : 6 478 kb/s
    Width : 1 920 pixels
    Height : 1 080 pixels
    Display aspect ratio : 16:9
    Frame rate : 29.970 (30000/1001) FPS
    Color space : YUV
    Chroma subsampling : 4:2:0
    Bit depth : 8 bits
    Scan type : MBAFF
    Scan type, store method : Interleaved fields
    Scan order : Top Field First
    Bits/(Pixel*Frame) : 0.104
    Stream size : 198 MiB (90%)

    Audio #1
    ID : 4097 (0x1001)
    Menu ID : 658 (0x292)
    Format : AC-3
    Format/Info : Audio Coding 3
    Commercial name : Dolby Digital
    Codec ID : 129
    Duration : 4 min 16 s
    Bit rate mode : Constant
    Bit rate : 192 kb/s
    Channel(s) : 2 channels
    Channel layout : L R
    Sampling rate : 48.0 kHz
    Frame rate : 31.250 FPS (1536 SPF)
    Compression mode : Lossy
    Stream size : 5.86 MiB (3%)
    Language : Portuguese
    Service kind : Complete Main

    Audio #2
    ID : 4098 (0x1002)
    Menu ID : 658 (0x292)
    Format : AC-3
    Format/Info : Audio Coding 3
    Commercial name : Dolby Digital
    Codec ID : 129
    Duration : 4 min 16 s
    Bit rate mode : Constant
    Bit rate : 192 kb/s
    Channel(s) : 2 channels
    Channel layout : L R
    Sampling rate : 48.0 kHz
    Frame rate : 31.250 FPS (1536 SPF)
    Compression mode : Lossy
    Stream size : 5.86 MiB (3%)
    Language : English
    Service kind : Complete Main

    Text #1
    ID : 4096 (0x1000)-CC1
    Menu ID : 658 (0x292)
    Format : EIA-608
    Muxing mode : SCTE 128 / DTVCC Transport
    Muxing mode, more info : Muxed in Video #1
    Duration : 4 min 16 s
    Bit rate mode : Constant
    Stream size : 0.00 Byte (0%)
    CaptionServiceName : CC1

    Text #2
    ID : 4096 (0x1000)-CC4
    Menu ID : 658 (0x292)
    Format : EIA-608
    Muxing mode : SCTE 128 / DTVCC Transport
    Muxing mode, more info : Muxed in Video #1
    Duration : 4 min 16 s
    Bit rate mode : Constant
    Stream size : 0.00 Byte (0%)
    CaptionServiceName : CC4

    Text #3
    ID : 4096 (0x1000)-1
    Menu ID : 658 (0x292)
    Format : EIA-708
    Muxing mode : SCTE 128 / DTVCC Transport
    Muxing mode, more info : Muxed in Video #1
    Duration : 4 min 16 s
    Bit rate mode : Constant
    Stream size : 0.00 Byte (0%)


    Link(s):
    Hidden Content:
    You must either reply or click 'Like' to see the hidden information contained here.
     
  2. CELOBRAZiL

    CELOBRAZiL Well-Known Member Capper V . I . P. Donor

    Joined:
    Oct 2, 2013
    Messages:
    12,761
    Likes Received:
    45,858
    :love::love::love:

    Added GOOGLE DRIVE link! :)
     
  3. rhea

    rhea Well-Known Member

    Joined:
    Jan 6, 2014
    Messages:
    11,925
    Likes Received:
    2,363
    thank you so much! :)
     
    CELOBRAZiL likes this.
  4. TrendMusic

    TrendMusic Well-Known Member

    Joined:
    Oct 7, 2013
    Messages:
    2,294
    Likes Received:
    282
    thanks
     
    CELOBRAZiL likes this.
  5. 96lagos

    96lagos Well-Known Member

    Joined:
    Dec 4, 2016
    Messages:
    2,509
    Likes Received:
    240
    Thanks
     
    CELOBRAZiL likes this.
  6. rvden

    rvden Well-Known Member

    Joined:
    Apr 9, 2017
    Messages:
    1,002
    Likes Received:
    743
    Thank you!
     
    CELOBRAZiL likes this.
  7. disneyrussianmusic

    disneyrussianmusic Well-Known Member

    Joined:
    Nov 9, 2015
    Messages:
    644
    Likes Received:
    517
    Thanks a lot!
     
    CELOBRAZiL likes this.
  8. marcovieirabh

    marcovieirabh Well-Known Member

    Joined:
    May 22, 2017
    Messages:
    1,428
    Likes Received:
    60
  9. al3ksandar

    al3ksandar Member

    Joined:
    Mar 31, 2021
    Messages:
    410
    Likes Received:
    4
  10. hellman197

    hellman197 New Member

    Joined:
    May 18, 2021
    Messages:
    26
    Likes Received:
    4
    Thanks.
     
  11. beryozael

    beryozael Well-Known Member

    Joined:
    Oct 25, 2020
    Messages:
    1,805
    Likes Received:
    119
    спасибо
     
  12. mvsonic

    mvsonic Active Member

    Joined:
    Dec 2, 2018
    Messages:
    597
    Likes Received:
    27
    thanks a lot!