Shakira - Underneath Your Clothes | (MCM Top-HDTV-1080i-DD2.0-IboYLDz)-HDMania

Discussion in 'MCM & MCM Top HD' started by By.YLDz, Feb 23, 2019.

  1. By.YLDz

    By.YLDz Taylor Swift Fan.. Capper

    Joined:
    Oct 7, 2013
    Messages:
    766
    Likes Received:
    8,114
    CappeD IboYLDz

    [​IMG] [​IMG] [​IMG] [​IMG] [​IMG] [​IMG] [​IMG] [​IMG] [​IMG] [​IMG]

    Format : MPEG-TS
    File size : 234 MiB
    Duration : 4 min 1 s
    Overall bit rate mode : Variable
    Overall bit rate : 8 106 kb/s

    Video
    ID : 1310 (0x51E)
    Menu ID : 8713 (0x2209)
    Format : AVC
    Format/Info : Advanced Video Codec
    Format profile : High@L4
    Format settings : CABAC / 4 Ref Frames
    Format settings, CABAC : Yes
    Format settings, ReFrames : 4 frames
    Format settings, GOP : M=8, N=24
    Codec ID : 27
    Duration : 4 min 1 s
    Bit rate : 7 511 kb/s
    Width : 1 920 pixels
    Height : 1 080 pixels
    Display aspect ratio : 16:9
    Frame rate : 25.000 FPS
    Standard : Component
    Color space : YUV
    Chroma subsampling : 4:2:0
    Bit depth : 8 bits
    Scan type : MBAFF
    Scan type, store method : Separated fields
    Scan order : Top Field First
    Bits/(Pixel*Frame) : 0.145
    Stream size : 216 MiB (93%)
    Color range : Limited
    Color primaries : BT.709
    Transfer characteristics : BT.709
    Matrix coefficients : BT.709

    Audio
    ID : 1321 (0x529)
    Menu ID : 8713 (0x2209)
    Format : AC-3
    Format/Info : Audio Coding 3
    Commercial name : Dolby Digital
    Codec ID : 6
    Duration : 4 min 1 s
    Bit rate mode : Constant
    Bit rate : 192 kb/s
    Channel(s) : 2 channels
    Channel layout : L R
    Sampling rate : 48.0 kHz
    Frame rate : 31.250 FPS (1536 SPF)
    Bit depth : 16 bits
    Compression mode : Lossy
    Delay relative to video : -40 ms
    Stream size : 5.53 MiB (2%)
    Language : French
    Service kind : Complete Main


    Hidden Content:
    You must either reply or click 'Like' to see the hidden information contained here.
    Rar Pass: IboYLDz
     
  2. rhea

    rhea Well-Known Member

    Joined:
    Jan 6, 2014
    Messages:
    12,187
    Likes Received:
    2,440
    thank you so much
     
  3. alberto piper naro

    alberto piper naro BETOHACKER

    Joined:
    Jul 4, 2015
    Messages:
    1,208
    Likes Received:
    989
  4. pyppyp

    pyppyp Member

    Joined:
    Mar 6, 2017
    Messages:
    556
    Likes Received:
    14
    thanks
     
  5. TrendMusic

    TrendMusic Well-Known Member

    Joined:
    Oct 7, 2013
    Messages:
    2,309
    Likes Received:
    291
  6. rvden

    rvden Well-Known Member

    Joined:
    Apr 9, 2017
    Messages:
    1,005
    Likes Received:
    745
    Thank you!
     
  7. maurohachen

    maurohachen Active Member

    Joined:
    Feb 24, 2015
    Messages:
    599
    Likes Received:
    69
  8. vahid14205

    vahid14205 Member

    Joined:
    Oct 24, 2018
    Messages:
    352
    Likes Received:
    12
  9. maxkeiser

    maxkeiser Well-Known Member Uploader

    Joined:
    Aug 24, 2016
    Messages:
    8,095
    Likes Received:
    29,555
    wahts taht
     
  10. codyfern

    codyfern Member

    Joined:
    Dec 19, 2018
    Messages:
    96
    Likes Received:
    3
    thanks
     
  11. CELOBRAZiL

    CELOBRAZiL Well-Known Member Capper V . I . P. Donor

    Joined:
    Oct 2, 2013
    Messages:
    13,668
    Likes Received:
    49,729
    Thank you so much my friend! :)
     
  12. Saturnight

    Saturnight Active Member

    Joined:
    May 18, 2020
    Messages:
    185
    Likes Received:
    137
    thanks!!
     
  13. Vjeans

    Vjeans Well-Known Member V . I . P.

    Joined:
    May 10, 2014
    Messages:
    2,178
    Likes Received:
    5,541
    Thank you
     
  14. neb010203

    neb010203 Well-Known Member

    Joined:
    Sep 6, 2018
    Messages:
    2,350
    Likes Received:
    331
  15. BadLion

    BadLion Member

    Joined:
    Feb 9, 2021
    Messages:
    393
    Likes Received:
    11
    thanks
     
  16. italospain

    italospain Well-Known Member

    Joined:
    Jun 5, 2020
    Messages:
    1,407
    Likes Received:
    51