HDTV Selena Gomez - iHeartRadio Jingle Ball Z100 NY 2013 HDTV 1080i

Discussion in 'HD Live Performances' started by nikshell29, Mar 4, 2021.

  1. nikshell29

    nikshell29 Well-Known Member

    Joined:
    Dec 29, 2020
    Messages:
    950
    Likes Received:
    1,306
    Selena Gomez - iHeartRadio Jingle Ball Z100 NY 2013 HDTV 1080i
    [​IMG]
    General
    ID : 1 (0x1)
    Complete name : Selena Gomez - Live @ Jingle Ball Z100 NY 2013. HDTV 1080i - nitz1.ts
    Format : MPEG-TS
    File size : 2.37 GiB
    Duration : 19 min 27 s
    Overall bit rate mode : Variable
    Overall bit rate : 17.5 Mb/s

    Video
    ID : 308 (0x134)
    Menu ID : 1 (0x1)
    Format : MPEG Video
    Format version : Version 2
    Format profile : Main@High
    Format settings : CustomMatrix / BVOP
    Format settings, BVOP : Yes
    Format settings, Matrix : Custom
    Format settings, GOP : Variable
    Format settings, picture struc : Frame
    Codec ID : 2
    Duration : 19 min 26 s
    Bit rate mode : Variable
    Bit rate : 16.2 Mb/s
    Maximum bit rate : 16.6 Mb/s
    Width : 1 920 pixels
    Height : 1 080 pixels
    Display aspect ratio : 16:9
    Frame rate : 29.970 (30000/1001) FPS
    Color space : YUV
    Chroma subsampling : 4:2:0
    Bit depth : 8 bits
    Scan type : Interlaced
    Scan order : Top Field First
    Compression mode : Lossy
    Bits/(Pixel*Frame) : 0.261
    Time code of first frame : 00:00:00;00
    Time code source : Group of pictures header
    GOP, Open/Closed : Open
    GOP, Open/Closed of first fram : Closed
    Stream size : 2.20 GiB (93%)

    Audio
    ID : 256 (0x100)
    Menu ID : 1 (0x1)
    Format : MPEG Audio
    Format version : Version 1
    Format profile : Layer 2
    Codec ID : 3
    Duration : 19 min 26 s
    Bit rate mode : Constant
    Bit rate : 384 kb/s
    Channel(s) : 2 channels
    Sampling rate : 48.0 kHz
    Frame rate : 41.667 FPS (1152 SPF)
    Compression mode : Lossy
    Stream size : 53.4 MiB (2%)
    Language : English

    Video: MPEG2 Video 1920x1080 29.97fps 16605kbps [V: mpeg2 main, yuv420p, 1920x1080, 16605 kb/s]
    Audio: MPEG Audio 48000Hz stereo 384kbps [A: English [eng] (mp2, 48000 Hz, stereo, 384 kb/s)]

    [​IMG]

    Hidden Content:
    You must either reply or click 'Like' to see the hidden information contained here.
    Credits to the original capper - nitz1
     
    Last edited: Apr 4, 2021
    rhea, Kensing, RaufTex and 13 others like this.
  2. Loading...


  3. M_pachenar

    M_pachenar Member

    Joined:
    Oct 26, 2019
    Messages:
    202
    Likes Received:
    9
    Thanks
     
    nikshell29 likes this.
  4. Gesha

    Gesha Member

    Joined:
    Jan 2, 2020
    Messages:
    97
    Likes Received:
    7
    спасибо
     
    nikshell29 likes this.
  5. KevinK

    KevinK Member

    Joined:
    Dec 5, 2020
    Messages:
    73
    Likes Received:
    8
    Thanks so much
     
    nikshell29 likes this.
  6. benja

    benja Well-Known Member

    Joined:
    Jan 8, 2014
    Messages:
    2,227
    Likes Received:
    189
    Thank you!
     
    nikshell29 likes this.
  7. kiiwii

    kiiwii Active Member

    Joined:
    Oct 10, 2013
    Messages:
    763
    Likes Received:
    47
    Thanks so much
     
    nikshell29 likes this.
  8. withcap

    withcap Well-Known Member

    Joined:
    Oct 29, 2013
    Messages:
    3,763
    Likes Received:
    653
    Thank you!:)
     
    nikshell29 likes this.
  9. Ak0202s

    Ak0202s Active Member

    Joined:
    May 18, 2020
    Messages:
    493
    Likes Received:
    26
    Thanks
     
    nikshell29 likes this.
  10. hdmzr

    hdmzr Member

    Joined:
    Oct 21, 2016
    Messages:
    209
    Likes Received:
    16
    gooooooood
     
    nikshell29 likes this.
  11. CELOBRAZiL

    CELOBRAZiL Well-Known Member Capper V . I . P. Donor

    Joined:
    Oct 2, 2013
    Messages:
    10,129
    Likes Received:
    38,123
    Thank you so much! :)
     
    nikshell29 likes this.
  12. gisele155

    gisele155 Active Member

    Joined:
    Jun 18, 2018
    Messages:
    851
    Likes Received:
    40
    thanks
     
    nikshell29 likes this.
  13. whosjessanywayew

    whosjessanywayew Active Member

    Joined:
    Jan 12, 2017
    Messages:
    395
    Likes Received:
    52
    thanks
     
    nikshell29 likes this.
  14. carllosv

    carllosv Active Member

    Joined:
    Aug 4, 2017
    Messages:
    589
    Likes Received:
    25
    Obrigado
     
    nikshell29 likes this.
  15. mvmaster

    mvmaster Active Member

    Joined:
    Oct 19, 2020
    Messages:
    288
    Likes Received:
    77
    thanks
     
    nikshell29 likes this.
  16. q11176641

    q11176641 Member

    Joined:
    Oct 8, 2017
    Messages:
    270
    Likes Received:
    13
    thanks
     
    nikshell29 likes this.
  17. danielgillmore

    danielgillmore Member

    Joined:
    Apr 15, 2020
    Messages:
    208
    Likes Received:
    13
    Thank you
     
    nikshell29 likes this.
  18. chianafan

    chianafan Member

    Joined:
    May 20, 2015
    Messages:
    225
    Likes Received:
    4
  19. celshare

    celshare Well-Known Member

    Joined:
    Aug 11, 2014
    Messages:
    437
    Likes Received:
    725
    Thanks.
     
  20. mf602320000

    mf602320000 Member

    Joined:
    Mar 15, 2019
    Messages:
    219
    Likes Received:
    9
  21. rhea

    rhea Well-Known Member

    Joined:
    Jan 6, 2014
    Messages:
    11,655
    Likes Received:
    2,250