HDTV Selena Gomez - Citi Concert Series - Today 2015-10-12 1080i HDTV DD5.1 MPEG2-TrollHD

Discussion in 'HD Live Performances' started by edgar, Feb 28, 2024.

  1. edgar

    edgar Well-Known Member Uploader V . I . P.

    Joined:
    Oct 12, 2013
    Threads:
    449
    Messages:
    3,076
    Likes Received:
    4,089
    [​IMG]
    [​IMG]
    General
    ID : 1 (0x1)
    Complete name : Selena Gomez - Citi Concert Series - Today 2015-10-12 1080i HDTV DD5.1 MPEG2-TrollHD.ts
    Format : MPEG-TS
    File size : 2.72 GiB
    Duration : 22 min 24 s
    Overall bit rate mode : Variable
    Overall bit rate : 17.4 Mb/s
    Frame rate : 29.970 FPS
    Law rating : TV-14 (DLV)

    Video
    ID : 7541 (0x1D75)
    Menu ID : 1027 (0x403)
    Format : MPEG Video
    Format version : Version 2
    Format profile : Main@High
    Format settings : CustomMatrix / BVOP
    Format settings, BVOP : Yes
    Format settings, Matrix : Custom
    Format settings, GOP : Variable
    Format settings, picture st : Frame
    Codec ID : 2
    Duration : 22 min 24 s
    Bit rate mode : Variable
    Bit rate : 15.9 Mb/s
    Maximum bit rate : 24.0 Mb/s
    Width : 1 920 pixels
    Height : 1 080 pixels
    Display aspect ratio : 16:9
    Active Format Description : Full frame 16:9 image
    Frame rate : 29.970 (30000/1001) FPS
    Color space : YUV
    Chroma subsampling : 4:2:0
    Bit depth : 8 bits
    Scan type : Interlaced
    Scan order : Top Field First
    Compression mode : Lossy
    Bits/(Pixel*Frame) : 0.256
    Time code of first frame : 00:00:00;00
    Time code source : Group of pictures header
    GOP, Open/Closed : Open
    Stream size : 2.49 GiB (92%)

    Audio #1
    ID : 7542 (0x1D76)
    Menu ID : 1027 (0x403)
    Format : AC-3
    Format/Info : Audio Coding 3
    Commercial name : Dolby Digital
    Codec ID : 129
    Duration : 22 min 24 s
    Bit rate mode : Constant
    Bit rate : 384 kb/s
    Channel(s) : 6 channels
    Channel layout : L R C LFE Ls Rs
    Sampling rate : 48.0 kHz
    Frame rate : 31.250 FPS (1536 SPF)
    Compression mode : Lossy
    Delay relative to video : 30 ms
    Stream size : 61.5 MiB (2%)
    Language : English
    Service kind : Complete Main

    Audio #2
    ID : 7543 (0x1D77)
    Menu ID : 1027 (0x403)
    Format : AC-3
    Format/Info : Audio Coding 3
    Commercial name : Dolby Digital
    Codec ID : 129
    Duration : 22 min 24 s
    Bit rate mode : Constant
    Bit rate : 192 kb/s
    Channel(s) : 2 channels
    Channel layout : L R
    Sampling rate : 48.0 kHz
    Frame rate : 31.250 FPS (1536 SPF)
    Compression mode : Lossy
    Delay relative to video : 19 ms
    Stream size : 30.8 MiB (1%)
    Language : Spanish
    Service kind : Complete Main

    Text #1
    ID : 7541 (0x1D75)-CC1
    Menu ID : 1027 (0x403)
    Format : EIA-608
    Muxing mode : A/53 / DTVCC Transport
    Muxing mode, more info : Muxed in Video #1
    Duration : 22 min 24 s
    End time : 22 min 24 s
    Bit rate mode : Constant
    Stream size : 0.00 Byte (0%)
    Type of the first event : RollUp

    Text #2
    ID : 7541 (0x1D75)-T1
    Menu ID : 1027 (0x403)
    Format : EIA-608
    Muxing mode : A/53 / DTVCC Transport
    Muxing mode, more info : Muxed in Video #1
    Duration : 22 min 24 s
    End time : 22 min 23 s
    Bit rate mode : Constant
    Stream size : 0.00 Byte (0%)

    Text #3
    ID : 7541 (0x1D75)-1
    Menu ID : 1027 (0x403)
    Format : EIA-708
    Muxing mode : A/53 / DTVCC Transport
    Muxing mode, more info : Muxed in Video #1
    Duration : 22 min 24 s
    Bit rate mode : Constant
    Stream size : 0.00 Byte (0%)
    Hidden Content:
    You must reply before you can see the hidden data contained here.
     
    Last edited by a moderator: Mar 2, 2024
  2. Loading...


  3. detroit1

    detroit1 Well-Known Member

    Joined:
    Jan 6, 2014
    Threads:
    476
    Messages:
    5,353
    Likes Received:
    1,050
    thank you
     
  4. detroit1

    detroit1 Well-Known Member

    Joined:
    Jan 6, 2014
    Threads:
    476
    Messages:
    5,353
    Likes Received:
    1,050
    can we please get other links. These ones are very hard to use and you get pop up warnings from anti virus software, etc
     
    keven likes this.
  5. gisele155

    gisele155 Well-Known Member

    Joined:
    Jun 18, 2018
    Threads:
    0
    Messages:
    1,599
    Likes Received:
    95
    obrigada
     
  6. Seong Kwon

    Seong Kwon Well-Known Member

    Joined:
    Sep 12, 2021
    Threads:
    0
    Messages:
    3,785
    Likes Received:
    283
  7. Joe1240

    Joe1240 Well-Known Member

    Joined:
    Apr 3, 2014
    Threads:
    56
    Messages:
    1,487
    Likes Received:
    690
    Thanks!
     
  8. keven

    keven Well-Known Member

    Joined:
    Apr 1, 2015
    Threads:
    17
    Messages:
    2,871
    Likes Received:
    315
    thanks
     
  9. fisherTW

    fisherTW Well-Known Member

    Joined:
    Dec 3, 2014
    Threads:
    95
    Messages:
    3,298
    Likes Received:
    1,325
    Thank you.
     
  10. keven

    keven Well-Known Member

    Joined:
    Apr 1, 2015
    Threads:
    17
    Messages:
    2,871
    Likes Received:
    315
    pls, new link
     
  11. javo_perez

    javo_perez Member

    Joined:
    Sep 6, 2016
    Threads:
    0
    Messages:
    220
    Likes Received:
    12
  12. silverwing13

    silverwing13 Well-Known Member

    Joined:
    Jul 1, 2014
    Threads:
    1
    Messages:
    1,097
    Likes Received:
    141
    Link expired
     
  13. P1956

    P1956 Well-Known Member

    Joined:
    Aug 18, 2014
    Threads:
    3
    Messages:
    4,940
    Likes Received:
    763
    THANKS
     
  14. Adaros

    Adaros Well-Known Member

    Joined:
    Jun 5, 2016
    Threads:
    0
    Messages:
    1,454
    Likes Received:
    198
    Thanks
     
  15. xingshouyi

    xingshouyi Well-Known Member

    Joined:
    Jun 27, 2016
    Threads:
    39
    Messages:
    1,312
    Likes Received:
    1,393
    Is the download link empty?
     
    Last edited: Mar 1, 2024
  16. multimediafm

    multimediafm Well-Known Member V . I . P. Collector Donor

    Joined:
    Mar 27, 2014
    Threads:
    47
    Messages:
    24,956
    Likes Received:
    3,946
    Thanks:)...
     
  17. iametor

    iametor Well-Known Member

    Joined:
    Oct 15, 2014
    Threads:
    2
    Messages:
    1,706
    Likes Received:
    161
    thanks!!!!!
     
  18. mtelism1

    mtelism1 Active Member

    Joined:
    Feb 3, 2022
    Threads:
    0
    Messages:
    562
    Likes Received:
    21
  19. mikemyer

    mikemyer Member

    Joined:
    Aug 31, 2022
    Threads:
    0
    Messages:
    353
    Likes Received:
    7
  20. edgar

    edgar Well-Known Member Uploader V . I . P.

    Joined:
    Oct 12, 2013
    Threads:
    449
    Messages:
    3,076
    Likes Received:
    4,089
    Updated Link
     
    silverwing13 likes this.
  21. detroit1

    detroit1 Well-Known Member

    Joined:
    Jan 6, 2014
    Threads:
    476
    Messages:
    5,353
    Likes Received:
    1,050
    can we get a google link ?
     
    iametor likes this.