Rosalía - Juro Que MASTER ProRes 1080p LPCM2.0

Discussion in 'PRORES HD' started by CELOBRAZiL, Jul 21, 2021.

  1. CELOBRAZiL

    CELOBRAZiL Well-Known Member Capper V . I . P. Donor

    Joined:
    Oct 2, 2013
    Messages:
    11,961
    Likes Received:
    42,922
    Rosalía - Juro Que MASTER ProRes 1080p LPCM2.0

    [​IMG]



    Format : MPEG-4
    Format profile : QuickTime
    Codec ID : qt 2005.03 (qt )
    File size : 3.40 GiB
    Duration : 2 min 46 s
    Overall bit rate mode : Variable
    Overall bit rate : 176 Mb/s
    Encoded date : UTC 2020-01-22 09:16:17
    Tagged date : UTC 2020-01-22 09:17:26
    Writing library : Apple QuickTime
    TIM : 00:00:00:00
    TSC : 24000
    TSZ : 1001

    Video
    ID : 1
    Format : ProRes
    Format version : Version 0
    Format profile : 422 HQ
    Codec ID : apch
    Duration : 2 min 46 s
    Bit rate mode : Variable
    Bit rate : 174 Mb/s
    Width : 1 920 pixels
    Height : 1 080 pixels
    Display aspect ratio : 16:9
    Frame rate mode : Constant
    Frame rate : 23.976 (24000/1001) FPS
    Color space : YUV
    Chroma subsampling : 4:2:2
    Scan type : Progressive
    Bits/(Pixel*Frame) : 3.499
    Stream size : 3.37 GiB (99%)
    Writing library : Apple
    Language : English
    Encoded date : UTC 2020-01-22 09:16:17
    Tagged date : UTC 2020-01-22 09:16:17
    Color primaries : BT.709
    Transfer characteristics : BT.709
    Matrix coefficients : BT.709

    Audio
    ID : 2
    Format : PCM
    Format settings : Little / Signed
    Codec ID : sowt
    Duration : 2 min 46 s
    Bit rate mode : Constant
    Bit rate : 1 536 kb/s
    Channel(s) : 2 channels
    Channel layout : L R
    Sampling rate : 48.0 kHz
    Bit depth : 16 bits
    Stream size : 30.5 MiB (1%)
    Language : English
    Encoded date : UTC 2020-01-22 09:16:17
    Tagged date : UTC 2020-01-22 09:16:17

    Other
    ID : 3
    Type : Time code
    Format : QuickTime TC
    Duration : 2 min 46 s
    Frame rate : 23.976 (24000/1001) FPS
    Time code of first frame : 00:00:00:00
    Time code, striped : Yes
    Language : English
    Encoded date : UTC 2020-01-22 09:16:17
    Tagged date : UTC 2020-01-22 09:16:17


    Link(s):
    Hidden Content:
    You must either reply or click 'Like' to see the hidden information contained here.
     
    bunny, GuisaoBR, JPGAmbrosino and 2 others like this.
  2. Loading...


  3. CELOBRAZiL

    CELOBRAZiL Well-Known Member Capper V . I . P. Donor

    Joined:
    Oct 2, 2013
    Messages:
    11,961
    Likes Received:
    42,922
    :love::love::love:

    Added GOOGLE DRIVE link + MIRROR link! :p
     
  4. nknna

    nknna Member

    Joined:
    Nov 28, 2019
    Messages:
    227
    Likes Received:
    5
    thank you so much
     
    CELOBRAZiL likes this.
  5. 2pac2pac2

    2pac2pac2 Member

    Joined:
    Mar 6, 2020
    Messages:
    163
    Likes Received:
    9
    Thxxxxx
     
    CELOBRAZiL likes this.
  6. apnyc

    apnyc Active Member

    Joined:
    Apr 11, 2016
    Messages:
    392
    Likes Received:
    114