DVD Rita Ora - Anywhere (Promo Only) [VOB]

Discussion in 'SD' started by claudio1301, Apr 22, 2021.

  1. claudio1301

    claudio1301 Well-Known Member V . I . P.

    Joined:
    Oct 2, 2018
    Messages:
    1,784
    Likes Received:
    4,358
    [​IMG]
    Code:
    General
    Complete name                  : Rita Ora - Anywhere (Promo Only).vob
    Format                         : MPEG-PS
    File size                      : 190 MiB
    Duration                       : 3 min 32 s
    Overall bit rate mode          : Variable
    Overall bit rate               : 7 479 kb/s
    
    Video
    ID                             : 224 (0xE0)
    Format                         : MPEG Video
    Format version                 : Version 2
    Format profile                 : Main@Main
    Format settings                : CustomMatrix / BVOP
    Format settings, BVOP          : Yes
    Format settings, Matrix        : Custom
    Format settings, GOP           : M=3, N=14
    Duration                       : 3 min 32 s
    Bit rate mode                  : Variable
    Bit rate                       : 5 794 kb/s
    Maximum bit rate               : 8 000 kb/s
    Width                          : 720 pixels
    Height                         : 480 pixels
    Display aspect ratio           : 16:9
    Frame rate                     : 23.976 (24000/1001) FPS
    Standard                       : NTSC
    Color space                    : YUV
    Chroma subsampling             : 4:2:0
    Bit depth                      : 8 bits
    Scan type                      : Progressive
    Scan order                     : 2:3 Pulldown
    Compression mode               : Lossy
    Bits/(Pixel*Frame)             : 0.699
    Time code of first frame       : 00:00:00:00
    Time code source               : Group of pictures header
    GOP, Open/Closed               : Closed
    Stream size                    : 147 MiB (77%)
    Color primaries                : BT.601 NTSC
    Transfer characteristics       : BT.601
    Matrix coefficients            : BT.601
    
    Audio
    ID                             : 189 (0xBD)-160 (0xA0)
    Format                         : PCM
    Format settings                : Big / Signed
    Muxing mode                    : DVD-Video
    Duration                       : 3 min 32 s
    Bit rate mode                  : Constant
    Bit rate                       : 1 536 kb/s
    Channel(s)                     : 2 channels
    Sampling rate                  : 48.0 kHz
    Bit depth                      : 16 bits
    Delay relative to video        : -285 ms
    Stream size                    : 39.0 MiB (21%)
    Host: Mediafire
    Hidden Content:
    You must reply before you can see the hidden data contained here.
     
    CELOBRAZiL likes this.
  2. Loading...


  3. rcj

    rcj Well-Known Member

    Joined:
    May 11, 2016
    Messages:
    1,918
    Likes Received:
    194
    Thank U!
     
  4. CELOBRAZiL

    CELOBRAZiL Well-Known Member Capper V . I . P. Donor

    Joined:
    Oct 2, 2013
    Messages:
    10,643
    Likes Received:
    38,393
    Thanks! :)