HDTV Rihanna - BBC Radio 1's Big Weekend Hackney [Jun-24-2012] BBCHD 1080i HDTV DD2.0 H.264-dylwys [CC]

Discussion in 'HD Live Performances' started by CELOBRAZiL, Oct 22, 2021.

  1. CELOBRAZiL

    CELOBRAZiL Well-Known Member Capper V . I . P. Donor

    Joined:
    Oct 2, 2013
    Messages:
    13,613
    Likes Received:
    49,426
    Rihanna - BBC Radio 1's Big Weekend Hackney [Jun-24-2012] BBCHD 1080i HDTV DD2.0 H.264-dylwys [CC]

    [​IMG]
    [​IMG]



    Format : MPEG-TS
    File size : 5.09 GiB
    Duration : 1 h 16 min
    Overall bit rate mode : Variable
    Overall bit rate : 9 552 kb/s

    Video
    ID : 5500 (0x157C)
    Menu ID : 6940 (0x1B1C)
    Format : AVC
    Format/Info : Advanced Video Codec
    Format profile : High@L4
    Format settings : CABAC / 4 Ref Frames
    Format settings, CABAC : Yes
    Format settings, Reference frames : 4 frames
    Format settings, GOP : M=8, N=24
    Codec ID : 27
    Duration : 1 h 16 min
    Bit rate : 8 628 kb/s
    Width : 1 920 pixels
    Height : 1 080 pixels
    Display aspect ratio : 16:9
    Frame rate : 25.000 FPS
    Color space : YUV
    Chroma subsampling : 4:2:0
    Bit depth : 8 bits
    Scan type : MBAFF
    Scan type, store method : Interleaved fields
    Scan order : Top Field First
    Bits/(Pixel*Frame) : 0.166
    Stream size : 4.60 GiB (90%)
    Color range : Limited
    Color primaries : BT.709
    Transfer characteristics : BT.709
    Matrix coefficients : BT.709

    Audio #1
    ID : 5501 (0x157D)
    Menu ID : 6940 (0x1B1C)
    Format : AC-3
    Format/Info : Audio Coding 3
    Commercial name : Dolby Digital
    Codec ID : 6
    Duration : 1 h 16 min
    Bit rate mode : Constant
    Bit rate : 192 kb/s
    Channel(s) : 2 channels
    Channel layout : L R
    Sampling rate : 48.0 kHz
    Frame rate : 31.250 FPS (1536 SPF)
    Compression mode : Lossy
    Delay relative to video : 3 ms
    Stream size : 105 MiB (2%)
    Language : English
    Service kind : Complete Main

    Audio #2
    ID : 5502 (0x157E)
    Menu ID : 6940 (0x1B1C)
    Format : MPEG Audio
    Format version : Version 1
    Format profile : Layer 2
    Codec ID : 3
    Duration : 1 h 16 min
    Bit rate mode : Constant
    Bit rate : 256 kb/s
    Channel(s) : 2 channels
    Sampling rate : 48.0 kHz
    Frame rate : 41.667 FPS (1152 SPF)
    Compression mode : Lossy
    Delay relative to video : 120 ms
    Stream size : 140 MiB (3%)
    Language : nar

    Text #1
    ID : 5503 (0x157F)-888
    Menu ID : 6940 (0x1B1C)
    Format : Teletext Subtitle
    Language : English

    Text #2
    ID : 5504 (0x1580)
    Menu ID : 6940 (0x1B1C)
    Format : DVB Subtitle
    Codec ID : 6
    Language : English


    Link(s):
    Hidden Content:
    You must either reply or click 'Like' to see the hidden information contained here.
     
    pauloctlpd, tetard, xilak and 8 others like this.
  2. Loading...


  3. CELOBRAZiL

    CELOBRAZiL Well-Known Member Capper V . I . P. Donor

    Joined:
    Oct 2, 2013
    Messages:
    13,613
    Likes Received:
    49,426
    :love::love::love:

    Added GOOGLE DRIVE link! :p
     
  4. nobreyn1912

    nobreyn1912 Member

    Joined:
    Aug 6, 2017
    Messages:
    214
    Likes Received:
    22
    thankssss
     
    CELOBRAZiL likes this.
  5. multimediafm

    multimediafm Well-Known Member Archiver Donor

    Joined:
    Mar 27, 2014
    Messages:
    21,785
    Likes Received:
    2,801
    Thanks:)
     
    CELOBRAZiL likes this.
  6. Plazik

    Plazik Active Member

    Joined:
    Oct 7, 2013
    Messages:
    350
    Likes Received:
    54
    thanks
     
    CELOBRAZiL likes this.
  7. theslothsidd

    theslothsidd Active Member Donor

    Joined:
    Sep 21, 2020
    Messages:
    140
    Likes Received:
    35
    Thank you, if you have Jay-Z's set from the same weekend, I would love to see an upload of that, thanks in advance
     
    CELOBRAZiL likes this.
  8. JPGAmbrosino

    JPGAmbrosino Well-Known Member

    Joined:
    Jul 30, 2016
    Messages:
    5,850
    Likes Received:
    273
    txsssssssssssssssssssssssss
     
    CELOBRAZiL likes this.
  9. meternich

    meternich Member

    Joined:
    Oct 21, 2021
    Messages:
    46
    Likes Received:
    8
    thanks
     
    CELOBRAZiL likes this.
  10. pdannis

    pdannis Active Member Donor

    Joined:
    Jun 1, 2014
    Messages:
    365
    Likes Received:
    55
    thanks
     
    CELOBRAZiL likes this.
  11. withcap

    withcap Well-Known Member

    Joined:
    Oct 29, 2013
    Messages:
    4,167
    Likes Received:
    758
    Thank you!
     
    CELOBRAZiL likes this.
  12. uminomiyako

    uminomiyako Well-Known Member

    Joined:
    May 28, 2016
    Messages:
    5,563
    Likes Received:
    369
    Thanks
     
    CELOBRAZiL likes this.
  13. bigray72

    bigray72 Well-Known Member

    Joined:
    Jun 30, 2018
    Messages:
    1,205
    Likes Received:
    165
    thanks
     
    CELOBRAZiL likes this.
  14. brian182

    brian182 Well-Known Member

    Joined:
    Oct 14, 2013
    Messages:
    2,997
    Likes Received:
    209
    thankss
     
    CELOBRAZiL likes this.
  15. brenoallex

    brenoallex Well-Known Member

    Joined:
    Sep 4, 2016
    Messages:
    1,578
    Likes Received:
    618
    thanks
     
    CELOBRAZiL likes this.
  16. AdamSamouel

    AdamSamouel Member

    Joined:
    Jan 19, 2020
    Messages:
    69
    Likes Received:
    6
  17. P1956

    P1956 Well-Known Member

    Joined:
    Aug 18, 2014
    Messages:
    2,014
    Likes Received:
    284
    thanks
     
  18. tetard

    tetard Feeling so good losing myself in music Super Moderator V . I . P.

    Joined:
    Mar 29, 2014
    Messages:
    6,451
    Likes Received:
    7,838
    Many thanks
     
  19. Baraka33

    Baraka33 Member

    Joined:
    Oct 18, 2021
    Messages:
    174
    Likes Received:
    0
  20. mac

    mac Member

    Joined:
    Nov 9, 2021
    Messages:
    57
    Likes Received:
    13
    thanks
     
  21. jamesplanet

    jamesplanet Well-Known Member

    Joined:
    Oct 12, 2020
    Messages:
    2,547
    Likes Received:
    221
    thank you