Ricky Martin - Maria (MTV IDOL HD-1080i-DD2.0-Olgold)

Discussion in 'MTV IDOL' started by RAVIXX, Jan 15, 2016.

  1. RAVIXX

    RAVIXX Well-Known Member V . I . P. Uploader

    Joined:
    Feb 20, 2014
    Messages:
    6,728
    Likes Received:
    101,470
    [​IMG]
    Code:
    General
    ID                                       : 1070 (0x42E)
    Complete name                            : Ricky Martin - Maria (MTV IDOL HD-1080i-DD2.0-Olgold).ts
    Format                                   : MPEG-TS
    File size                                : 219 MiB
    Duration                                 : 4mn 32s
    Overall bit rate mode                    : Variable
    Overall bit rate                         : 6 735 Kbps
    
    Video
    ID                                       : 310 (0x136)
    Menu ID                                  : 8003 (0x1F43)
    Format                                   : AVC
    Format/Info                              : Advanced Video Codec
    Format profile                           : High@L4
    Format settings, CABAC                   : Yes
    Format settings, ReFrames                : 4 frames
    Codec ID                                 : 27
    Duration                                 : 4mn 33s
    Bit rate                                 : 6 208 Kbps
    Width                                    : 1 920 pixels
    Height                                   : 1 080 pixels
    Display aspect ratio                     : 16:9
    Frame rate                               : 25.000 fps
    Standard                                 : Component
    Color space                              : YUV
    Chroma subsampling                       : 4:2:0
    Bit depth                                : 8 bits
    Scan type                                : MBAFF
    Scan order                               : Top Field First
    Bits/(Pixel*Frame)                       : 0.120
    Stream size                              : 202 MiB (92%)
    Encryption                               : Seca Mediaguard 1/2
    Color range                              : Limited
    Color primaries                          : BT.709
    Transfer characteristics                 : BT.709
    Matrix coefficients                      : BT.709
    
    Audio
    ID                                       : 321 (0x141)
    Menu ID                                  : 8003 (0x1F43)
    Format                                   : AC-3
    Format/Info                              : Audio Coding 3
    Mode extension                           : CM (complete main)
    Format settings, Endianness              : Big
    Codec ID                                 : 6
    Duration                                 : 4mn 33s
    Bit rate mode                            : Constant
    Bit rate                                 : 192 Kbps
    Channel(s)                               : 2 channels
    Channel positions                        : Front: L R
    Sampling rate                            : 48.0 KHz
    Bit depth                                : 16 bits
    Compression mode                         : Lossy
    Delay relative to video                  : -22ms
    Stream size                              : 6.25 MiB (3%)
    Language                                 : French
    Encryption                               : Seca Mediaguard 1/2
    
    Menu
    ID                                       : 300 (0x12C)
    Menu ID                                  : 8003 (0x1F43)
    Duration                                 : 4mn 32s
    List                                     : 310 (0x136) (AVC) / 321 (0x141) (AC-3, French)
    Language                                 :  / French
    Server: cloud.mail.ru
    Hidden Content:
    You must reply before you can see the hidden data contained here.
     
    dan iel, ricky_miamor, saws9 and 4 others like this.
  2. nolynexor88

    nolynexor88 nolynexor88

    Joined:
    Sep 29, 2015
    Messages:
    2,233
    Likes Received:
    238
    Thank you.:)
     
  3. dersullana

    dersullana Well-Known Member

    Joined:
    Dec 21, 2015
    Messages:
    2,348
    Likes Received:
    106
  4. Snorom6

    Snorom6 Well-Known Member V . I . P. Uploader

    Joined:
    Dec 17, 2015
    Messages:
    4,246
    Likes Received:
    9,595
    thoth
     
  5. rhea

    rhea Well-Known Member

    Joined:
    Jan 6, 2014
    Messages:
    11,925
    Likes Received:
    2,363
    thank you so much :)
     
  6. williamcaracas

    williamcaracas Member

    Joined:
    Nov 29, 2013
    Messages:
    207
    Likes Received:
    2
  7. akon111

    akon111 Well-Known Member

    Joined:
    Dec 29, 2015
    Messages:
    727
    Likes Received:
    486
    thanks
     
  8. tsm897

    tsm897 Member

    Joined:
    Apr 16, 2014
    Messages:
    196
    Likes Received:
    8
    thank you
     
  9. slash

    slash Member

    Joined:
    Mar 17, 2016
    Messages:
    63
    Likes Received:
    2
    thanks
     
  10. TrendMusic

    TrendMusic Well-Known Member

    Joined:
    Oct 7, 2013
    Messages:
    2,294
    Likes Received:
    282
  11. multimediafm

    multimediafm Well-Known Member Archiver Donor

    Joined:
    Mar 27, 2014
    Messages:
    21,070
    Likes Received:
    2,505
    Thanks :)
    Ricky Martin - Maria (MTV IDOL HD-1080i-DD2.0-Olgold)
     
  12. andavas

    andavas Member

    Joined:
    Apr 8, 2016
    Messages:
    507
    Likes Received:
    20
  13. Pavulon

    Pavulon Well-Known Member Donor

    Joined:
    Mar 22, 2016
    Messages:
    5,032
    Likes Received:
    1,741
    thanks
     
  14. roberthls

    roberthls Member

    Joined:
    May 26, 2016
    Messages:
    253
    Likes Received:
    5
  15. khan

    khan Well-Known Member

    Joined:
    May 11, 2014
    Messages:
    1,922
    Likes Received:
    155
    thanx
     
  16. jimijims

    jimijims Active Member

    Joined:
    Jul 13, 2016
    Messages:
    910
    Likes Received:
    113
    thank you
     
  17. rimisark

    rimisark Member

    Joined:
    Jul 22, 2016
    Messages:
    343
    Likes Received:
    11
    10xxxxxxxxxxxxxxxxxxx
     
  18. rikylouis14

    rikylouis14 Well-Known Member

    Joined:
    Jun 27, 2016
    Messages:
    1,026
    Likes Received:
    1,439
    thanks!
     
  19. braciata

    braciata Well-Known Member

    Joined:
    Oct 16, 2014
    Messages:
    376
    Likes Received:
    843
    thank you
     
  20. saws9

    saws9 Member

    Joined:
    Feb 16, 2016
    Messages:
    38
    Likes Received:
    3
    thanks