Filled [REQ VID] Celine Dion - That’s Just The Woman In Me

Discussion in 'Requests' started by Jascka, Oct 31, 2016.

  1. Jascka

    Jascka Active Member

    Joined:
    Nov 9, 2015
    Threads:
    83
    Messages:
    654
    Likes Received:
    123
    Anyone get it, please? :blush:

    It's impossible for me to download it!

    [​IMG]
    [​IMG]

    Thank you in advance. :blush:
     
    Josue Carminatti and junior.ca like this.
  2. Loading...


  3. Snorom6

    Snorom6 Well-Known Member Uploader V . I . P.

    Joined:
    Dec 17, 2015
    Threads:
    368
    Messages:
    4,162
    Likes Received:
    10,342
    upping
     
    Jascka likes this.
  4. Snorom6

    Snorom6 Well-Known Member Uploader V . I . P.

    Joined:
    Dec 17, 2015
    Threads:
    368
    Messages:
    4,162
    Likes Received:
    10,342
    Celine Dion That’s Just the Woman in Me 1080i.HDTV.36MBit.MPEG-2.DD2.0-CtrlHD





    Code:
    General
    ID                             : 1 (0x1)
    Complete name                  : Celine.Dion.That’s.Just.the.Woman.in.Me.1080i.HDTV.36MBit.MPEG-2.DD2.0-CtrlHD.ts
    Format                         : MPEG-TS
    File size                      : 10.1 GiB
    Duration                       : 42mn 15s
    Overall bit rate mode          : Variable
    Overall bit rate               : 34.3 Mbps
    
    Video
    ID                             : 4113 (0x1011)
    Menu ID                        : 1 (0x1)
    Format                         : MPEG Video
    Format version                 : Version 2
    Format profile                 : Main@High
    Format settings, BVOP          : No
    Format settings, Matrix        : Default
    Format settings, GOP           : N=12
    Format settings, picture struc : Frame
    Codec ID                       : 2
    Duration                       : 42mn 15s
    Bit rate mode                  : Variable
    Bit rate                       : 32.2 Mbps
    Maximum bit rate               : 44.5 Mbps
    Width                          : 1 920 pixels
    Height                         : 1 080 pixels
    Display aspect ratio           : 16:9
    Frame rate                     : 29.970 fps
    Color space                    : YUV
    Chroma subsampling             : 4:2:0
    Bit depth                      : 8 bits
    Scan type                      : Interlaced
    Scan order                     : Top Field First
    Compression mode               : Lossy
    Bits/(Pixel*Frame)             : 0.519
    Time code of first frame       : 00:00:00;00
    Time code source               : Group of pictures header
    GOP, Open/Closed               : Closed
    Stream size                    : 9.52 GiB (94%)
    
    Audio
    ID                             : 4352 (0x1100)
    Menu ID                        : 1 (0x1)
    Format                         : AC-3
    Format/Info                    : Audio Coding 3
    Mode extension                 : CM (complete main)
    Format settings, Endianness    : Big
    Codec ID                       : 129
    Duration                       : 42mn 15s
    Bit rate mode                  : Constant
    Bit rate                       : 384 Kbps
    Channel(s)                     : 2 channels
    Channel positions              : Front: L R
    Sampling rate                  : 48.0 KHz
    Compression mode               : Lossy
    Stream size                    : 116 MiB (1%)
    Language                       : English
    
    Text #1
    ID                             : 4113 (0x1011)-CC1
    Menu ID                        : 1 (0x1)
    Format                         : EIA-608
    Muxing mode                    : A/53 / DTVCC Transport
    Muxing mode, more info         : Muxed in Video #1
    Duration                       : 42mn 15s
    Bit rate mode                  : Constant
    Stream size                    : 0.00 Byte (0%)
    
    Text #2
    ID                             : 4113 (0x1011)-1
    Menu ID                        : 1 (0x1)
    Format                         : EIA-708
    Muxing mode                    : A/53 / DTVCC Transport
    Muxing mode, more info         : Muxed in Video #1
    Duration                       : 42mn 15s
    Bit rate mode                  : Constant
    Stream size                    : 0.00 Byte (0%)
    
    
    

    Hidden Content:
    You must either reply or click 'Like' to see the hidden information contained here.
     
  5. Scherzyboy

    Scherzyboy Super Moderator Staff Member Super Moderator Capper Uploader V . I . P. Collector Donor

    Joined:
    May 14, 2015
    Threads:
    284
    Messages:
    1,627
    Likes Received:
    3,951
    Celine Dion That’s Just the Woman in Me 1080i.HDTV.36MBit.MPEG-2.DD2.0-CtrlHD
    Thanx a lot!
     
    Rega and Snorom6 like this.
  6. Jascka

    Jascka Active Member

    Joined:
    Nov 9, 2015
    Threads:
    83
    Messages:
    654
    Likes Received:
    123
    [​IMG]

    Thanks a lot, mate. :blush::sunglasses:
     
    Snorom6 likes this.
  7. kevin410

    kevin410 Well-Known Member Donor

    Joined:
    Dec 21, 2014
    Threads:
    46
    Messages:
    370
    Likes Received:
    723
    Huge work, thank you so much!
     
    Snorom6 likes this.
  8. sunshania

    sunshania New Member

    Joined:
    Nov 6, 2016
    Threads:
    0
    Messages:
    5
    Likes Received:
    0
    thank you
     
  9. mavs88

    mavs88 Well-Known Member Uploader

    Joined:
    Jun 25, 2016
    Threads:
    269
    Messages:
    1,843
    Likes Received:
    2,217
    Wow. Thank you for sharing!!!
     
  10. junior.ca

    junior.ca Well-Known Member

    Joined:
    Jun 1, 2014
    Threads:
    2
    Messages:
    4,410
    Likes Received:
    271
    obrigado
     
  11. Josue Carminatti

    Josue Carminatti Member

    Joined:
    Jul 19, 2015
    Threads:
    2
    Messages:
    470
    Likes Received:
    15
    thank you for Celine
     
  12. Rega

    Rega Member

    Joined:
    Feb 9, 2017
    Threads:
    0
    Messages:
    186
    Likes Received:
    10
  13. lucianogerman

    lucianogerman Member

    Joined:
    Mar 25, 2017
    Threads:
    0
    Messages:
    94
    Likes Received:
    4
  14. eduardosantos

    eduardosantos Active Member

    Joined:
    Apr 18, 2017
    Threads:
    0
    Messages:
    963
    Likes Received:
    95
  15. eduardosantos

    eduardosantos Active Member

    Joined:
    Apr 18, 2017
    Threads:
    0
    Messages:
    963
    Likes Received:
    95
    erro to open the files:oops:
     
  16. lucianogerman

    lucianogerman Member

    Joined:
    Mar 25, 2017
    Threads:
    0
    Messages:
    94
    Likes Received:
    4
  17. IAmJoshuaFierce15

    IAmJoshuaFierce15 Member

    Joined:
    Jan 3, 2019
    Threads:
    0
    Messages:
    100
    Likes Received:
    7