Rauw Alejandro – Cúrame (Master Clean ProRes 2K) – 2021

Discussion in 'PRORES HD' started by ProRes_lobster, Sep 20, 2021.

  1. ProRes_lobster

    ProRes_lobster Collector

    Joined:
    Apr 4, 2021
    Messages:
    397
    Likes Received:
    574
    [​IMG]


    Rauw Alejandro – Cúrame



    Code:
    General Complete name : Rauw Alejandro – Cúrame (Master Clean ProRes 2K) – 2021.mov Format : MPEG-4 Format profile : QuickTime Codec ID : qt 2005.03 (qt ) File size : 4.48 GiB Duration : 3 min 2 s Overall bit rate mode : Variable Overall bit rate : 211 Mb/s Encoded date : UTC 2021-09-16 01:38:59 Tagged date : UTC 2021-09-16 01:59:33 Writing library : Apple QuickTime TIM : 00:00:00:00 TSC : 24000 TSZ : 1001 Video ID : 1 Format : ProRes Format version : Version 0 Format profile : 422 HQ Codec ID : apch Duration : 3 min 2 s Bit rate mode : Variable Bit rate : 210 Mb/s Width : 2 048 pixels Height : 1 152 pixels Display aspect ratio : 16:9 Frame rate mode : Constant Frame rate : 23.976 (24000/1001) FPS Color space : YUV Chroma subsampling : 4:2:2 Scan type : Progressive Bits/(Pixel*Frame) : 3.708 Stream size : 4.45 GiB (99%) Writing library : adb0 Language : English Encoded date : UTC 2021-09-16 01:38:59 Tagged date : UTC 2021-09-16 01:38:59 Color primaries : BT.709 Transfer characteristics : BT.709 Matrix coefficients : BT.709 Menus : 0 Audio ID : 2 Format : PCM Format settings : Little / Signed Codec ID : sowt Duration : 3 min 2 s Bit rate mode : Constant Bit rate : 1 536 kb/s Channel(s) : 2 channels Channel positions : Front: L R Sampling rate : 48.0 kHz Bit depth : 16 bits Stream size : 33.4 MiB (1%) Language : English Encoded date : UTC 2021-09-16 01:38:59 Tagged date : UTC 2021-09-16 01:38:59 Menus : 0 Other ID : 3 Type : Time code Format : QuickTime TC Duration : 3 min 2 s Time code of first frame : 00:00:00:00 Time code, striped : Yes Language : English Encoded date : UTC 2021-09-16 01:38:59 Tagged date : UTC 2021-09-16 01:38:59 ​


    LINK SERVER : GD


    Hidden Content:
    You must reply before you can see the hidden data contained here.
     
  2. Loading...


  3. P1956

    P1956 Well-Known Member

    Joined:
    Aug 18, 2014
    Messages:
    1,625
    Likes Received:
    201
    thanks
     
  4. Gisbermc

    Gisbermc Active Member

    Joined:
    Aug 15, 2020
    Messages:
    193
    Likes Received:
    25
    Gracias
     
  5. Honglong

    Honglong Well-Known Member

    Joined:
    Feb 6, 2020
    Messages:
    1,573
    Likes Received:
    134
    thanks
     
  6. tegibu

    tegibu Well-Known Member

    Joined:
    Jan 9, 2018
    Messages:
    1,158
    Likes Received:
    790
    thanks
     
  7. CELOBRAZiL

    CELOBRAZiL Well-Known Member Capper V . I . P. Donor

    Joined:
    Oct 2, 2013
    Messages:
    13,168
    Likes Received:
    47,683
    Thanks! :)