DVD Phil Barney - Un Seul Enfant De Toi [VOB]

Discussion in 'SD' started by markitomg, Feb 28, 2024.

  1. markitomg

    markitomg Well-Known Member Uploader

    Joined:
    May 24, 2016
    Threads:
    754
    Messages:
    2,311
    Likes Received:
    2,681
    Request @Artik

    [​IMG]
    Code:
    Format                         : MPEG-PS
    File size                      : 135 MiB
    Duration                       : 3mn 43s
    Overall bit rate mode          : Variable
    Overall bit rate               : 5 083 Kbps
    Writing library                : http://vip-files.net
    
    Video
    ID                             : 224 (0xE0)
    Format                         : MPEG Video
    Format version                 : Version 2
    Format profile                 : Main@Main
    Format settings, BVOP          : No
    Format settings, Matrix        : Custom
    Format settings, GOP           : Variable
    Duration                       : 3mn 43s
    Bit rate mode                  : Variable
    Bit rate                       : 4 726 Kbps
    Maximum bit rate               : 8 260 Kbps
    Width                          : 720 pixels
    Height                         : 576 pixels
    Display aspect ratio           : 4:3
    Frame rate                     : 25.000 fps
    Standard                       : PAL
    Color space                    : YUV
    Chroma subsampling             : 4:2:0
    Bit depth                      : 8 bits
    Scan type                      : Interlaced
    Scan order                     : Top Field First
    Compression mode               : Lossy
    Bits/(Pixel*Frame)             : 0.456
    Time code of first frame       : 00:00:00:00
    Time code source               : Group of pictures header
    Stream size                    : 126 MiB (93%)
    Source encoded stream size     : http://vip-files.net
    Writing library                : http://vip-files.net
    
    Audio
    ID                             : 189 (0xBD)-128 (0x80)
    Format                         : AC-3
    Format/Info                    : Audio Coding 3
    Mode extension                 : CM (complete main)
    Format settings, Endianness    : Big
    Muxing mode                    : DVD-Video
    Duration                       : 3mn 43s
    Bit rate mode                  : Constant
    Bit rate                       : 256 Kbps
    Channel(s)                     : 2 channels
    Channel positions              : Front: L R
    Sampling rate                  : 48.0 KHz
    Bit depth                      : 16 bits
    Compression mode               : Lossy
    Stream size                    : 6.81 MiB (5%)
    Hidden Content:
    You must reply before you can see the hidden data contained here.
     
    Last edited: Feb 28, 2024
  2. Loading...


  3. Artik

    Artik Well-Known Member

    Joined:
    Apr 16, 2018
    Threads:
    42
    Messages:
    1,724
    Likes Received:
    52
  4. Artik

    Artik Well-Known Member

    Joined:
    Apr 16, 2018
    Threads:
    42
    Messages:
    1,724
    Likes Received:
    52
    Thank you very much!
     
  5. luccas2006

    luccas2006 Well-Known Member

    Joined:
    Dec 10, 2021
    Threads:
    0
    Messages:
    1,228
    Likes Received:
    52
  6. gente

    gente Member

    Joined:
    Jun 12, 2018
    Threads:
    0
    Messages:
    98
    Likes Received:
    5
    Thank you