Paramore - Decode (MTVIdol-1080i-DD2.0)-Olgold

Discussion in 'MTV IDOL' started by Olgold, Aug 27, 2015.

  1. Olgold

    Olgold Well-Known Member Capper

    Joined:
    Aug 19, 2015
    Messages:
    436
    Likes Received:
    2,109
    [​IMG]
    General
    Format : MPEG-TS
    File size : 249 MiB
    Duration : 3mn 59s
    Overall bit rate mode : Variable
    Overall bit rate : 8 699 Kbps

    Video
    Format : AVC
    Format/Info : Advanced Video Codec
    Format profile : High@L4
    Format settings, CABAC : Yes
    Format settings, ReFrames : 4 frames
    Duration : 3mn 59s
    Bit rate : 8 011 Kbps
    Width : 1 920 pixels
    Height : 1 080 pixels
    Display aspect ratio : 16:9
    Frame rate : 25.000 fps
    Standard : Component
    Color space : YUV
    Chroma subsampling : 4:2:0
    Bit depth : 8 bits
    Scan type : MBAFF
    Scan order : Top Field First
    Bits/(Pixel*Frame) : 0.155
    Stream size : 229 MiB (92%)
    Color range : Limited

    Audio
    Format : AC-3
    Format/Info : Audio Coding 3
    Mode extension : CM (complete main)
    Format settings, Endianness : Big
    Duration : 4mn 0s
    Bit rate mode : Constant
    Bit rate : 256 Kbps
    Channel(s) : 2 channels
    Channel positions : Front: L R
    Sampling rate : 48.0 KHz
    Compression mode : Lossy
    Delay relative to video : 112ms
    Stream size : 7.33 MiB (3%)
    Language : French

    Hidden Content:
    You must reply before you can see the hidden data contained here.
     
  2. Loading...


  3. 777josem

    777josem ProRes 1080p LPCM V . I . P. Uploader

    Joined:
    Sep 1, 2014
    Messages:
    3,892
    Likes Received:
    5,924
    Thank you so much!
     
  4. rhea

    rhea Well-Known Member

    Joined:
    Jan 6, 2014
    Messages:
    12,187
    Likes Received:
    2,440
    thank you so much! :)
     
  5. Himperios

    Himperios Member

    Joined:
    Oct 11, 2015
    Messages:
    317
    Likes Received:
    21
    good
     
  6. kid

    kid New Member

    Joined:
    Jan 24, 2016
    Messages:
    26
    Likes Received:
    0
    rtututu
     
  7. Zeeh

    Zeeh Rallyforrivers.org

    Joined:
    Mar 20, 2015
    Messages:
    754
    Likes Received:
    32
    Thanks
     
  8. kassiu wehmuth

    kassiu wehmuth Member

    Joined:
    Jun 7, 2015
    Messages:
    205
    Likes Received:
    13
    DECODE
     
  9. seliparkoyak123

    seliparkoyak123 Member

    Joined:
    Oct 8, 2016
    Messages:
    42
    Likes Received:
    0
  10. Almas_mirza

    Almas_mirza New Member

    Joined:
    Dec 20, 2016
    Messages:
    3
    Likes Received:
    0
    Paramore
     
  11. qwerty

    qwerty Member

    Joined:
    Dec 29, 2013
    Messages:
    39
    Likes Received:
    11
    thanks
     
  12. Satya

    Satya Active Member

    Joined:
    Jul 17, 2019
    Messages:
    464
    Likes Received:
    115
    Dead.
     
  13. Erickanthony21

    Erickanthony21 Member

    Joined:
    May 27, 2020
    Messages:
    115
    Likes Received:
    1
  14. maiklp

    maiklp New Member

    Joined:
    May 16, 2021
    Messages:
    13
    Likes Received:
    0
    thank you