Ozuna x Doja Cat x Sia - Del Mar MASTER ProRes 1152p LPCM2.0

Discussion in 'PRORES HD' started by CELOBRAZiL, Jul 28, 2021.

  1. CELOBRAZiL

    CELOBRAZiL Well-Known Member Capper V . I . P. Donor

    Joined:
    Oct 2, 2013
    Messages:
    12,761
    Likes Received:
    45,858
    Ozuna x Doja Cat x Sia - Del Mar MASTER ProRes 1152p LPCM2.0

    [​IMG]



    Format : MPEG-4
    Format profile : QuickTime
    Codec ID : qt 2005.03 (qt )
    File size : 6.06 GiB
    Duration : 4 min 12 s
    Overall bit rate mode : Variable
    Overall bit rate : 206 Mb/s
    Encoded date : UTC 2020-10-21 04:23:48
    Tagged date : UTC 2020-10-13 04:25:27
    Writing library : Apple QuickTime
    TIM : 00:00:20:15
    TSC : 24000
    TSZ : 1001

    Video
    ID : 1
    Format : ProRes
    Format version : Version 0
    Format profile : 422 HQ
    Codec ID : apch
    Duration : 4 min 12 s
    Bit rate mode : Variable
    Bit rate : 205 Mb/s
    Width : 2 048 pixels
    Height : 1 152 pixels
    Display aspect ratio : 16:9
    Frame rate mode : Constant
    Frame rate : 23.976 (24000/1001) FPS
    Color space : YUV
    Chroma subsampling : 4:2:2
    Scan type : Progressive
    Bits/(Pixel*Frame) : 3.618
    Stream size : 6.01 GiB (99%)
    Writing library : Apple
    Language : English
    Encoded date : UTC 2020-10-21 04:23:48
    Tagged date : UTC 2020-10-21 04:23:48
    Color primaries : BT.709
    Transfer characteristics : BT.709
    Matrix coefficients : BT.709

    Audio
    ID : 2
    Format : PCM
    Format settings : Little / Signed
    Codec ID : sowt
    Duration : 4 min 12 s
    Bit rate mode : Constant
    Bit rate : 1 536 kb/s
    Channel(s) : 2 channels
    Channel layout : L R
    Sampling rate : 48.0 kHz
    Bit depth : 16 bits
    Stream size : 46.2 MiB (1%)
    Language : English
    Encoded date : UTC 2020-10-21 04:23:48
    Tagged date : UTC 2020-10-21 04:23:48

    Other
    ID : 3
    Type : Time code
    Format : QuickTime TC
    Duration : 4 min 12 s
    Frame rate : 23.976 (24000/1001) FPS
    Time code of first frame : 00:00:20:15
    Time code, striped : Yes
    Language : English
    Encoded date : UTC 2020-10-21 04:23:48
    Tagged date : UTC 2020-10-21 04:23:48


    Link(s):
    Hidden Content:
    You must either reply or click 'Like' to see the hidden information contained here.
     
  2. Loading...


  3. CELOBRAZiL

    CELOBRAZiL Well-Known Member Capper V . I . P. Donor

    Joined:
    Oct 2, 2013
    Messages:
    12,761
    Likes Received:
    45,858
    :love::love::love:

    Added GOOGLE DRIVE link + MIRROR link! :p
     
  4. tegibu

    tegibu Well-Known Member

    Joined:
    Jan 9, 2018
    Messages:
    1,136
    Likes Received:
    763
    thanks
     
    CELOBRAZiL likes this.
  5. gino bel

    gino bel Active Member

    Joined:
    Jul 30, 2020
    Messages:
    451
    Likes Received:
    26
  6. diegokof86

    diegokof86 Member

    Joined:
    Oct 14, 2019
    Messages:
    248
    Likes Received:
    5
    fdgfdgdfgdfgdf
     
  7. brenoallex

    brenoallex Well-Known Member

    Joined:
    Sep 4, 2016
    Messages:
    1,531
    Likes Received:
    570
    thanks
     
    CELOBRAZiL likes this.
  8. steviex

    steviex Active Member

    Joined:
    Oct 16, 2020
    Messages:
    686
    Likes Received:
    31
    thank you
     
    CELOBRAZiL likes this.