Ozuna - Mi Niña [Live] MASTER ProRes 2160p LPCM2.0

Discussion in 'PRORES HD' started by CELOBRAZiL, Aug 16, 2021.

  1. CELOBRAZiL

    CELOBRAZiL Well-Known Member Capper V . I . P. Donor

    Joined:
    Oct 2, 2013
    Messages:
    13,168
    Likes Received:
    47,684
    Ozuna - Mi Niña [Live] MASTER ProRes 2160p LPCM2.0

    [​IMG]



    Format : MPEG-4
    Format profile : QuickTime
    Codec ID : qt 2005.03 (qt )
    File size : 16.0 GiB
    Duration : 3 min 26 s
    Overall bit rate mode : Variable
    Overall bit rate : 663 Mb/s
    Encoded date : UTC 2021-06-19 19:06:27
    Tagged date : UTC 2021-06-19 19:19:23
    Writing library : Apple QuickTime
    TIM : 00:00:00:00
    TSC : 24000
    TSZ : 1001

    Video
    ID : 1
    Format : ProRes
    Format version : Version 0
    Format profile : 422 HQ
    Codec ID : apch
    Duration : 3 min 26 s
    Bit rate mode : Variable
    Bit rate : 661 Mb/s
    Width : 3 840 pixels
    Height : 2 160 pixels
    Display aspect ratio : 16:9
    Frame rate mode : Constant
    Frame rate : 23.976 (24000/1001) FPS
    Color space : YUV
    Chroma subsampling : 4:2:2
    Scan type : Progressive
    Bits/(Pixel*Frame) : 3.322
    Stream size : 15.9 GiB (100%)
    Writing library : Apple
    Language : English
    Encoded date : UTC 2021-06-19 19:06:27
    Tagged date : UTC 2021-06-19 19:06:27
    Color primaries : BT.709
    Transfer characteristics : BT.709
    Matrix coefficients : BT.709

    Audio
    ID : 2
    Format : PCM
    Format settings : Little / Signed
    Codec ID : in24
    Duration : 3 min 26 s
    Bit rate mode : Constant
    Bit rate : 2 304 kb/s
    Channel(s) : 2 channels
    Channel layout : L R
    Sampling rate : 48.0 kHz
    Bit depth : 24 bits
    Stream size : 56.8 MiB (0%)
    Language : English
    Encoded date : UTC 2021-06-19 19:06:27
    Tagged date : UTC 2021-06-19 19:06:27

    Other
    ID : 3
    Type : Time code
    Format : QuickTime TC
    Duration : 3 min 26 s
    Frame rate : 23.976 (24000/1001) FPS
    Time code of first frame : 00:00:00:00
    Time code, striped : Yes
    Language : English
    Encoded date : UTC 2021-06-19 19:06:27
    Tagged date : UTC 2021-06-19 19:06:27




    Link(s):
    Hidden Content:
    You must either reply or click 'Like' to see the hidden information contained here.
     
    nguyentrankhaihung and HosseinXO like this.
  2. Loading...


  3. CELOBRAZiL

    CELOBRAZiL Well-Known Member Capper V . I . P. Donor

    Joined:
    Oct 2, 2013
    Messages:
    13,168
    Likes Received:
    47,684
    :love::love::love:

    Added GOOGLE DRIVE link + MIRROR link! :p
     
  4. brenoallex

    brenoallex Well-Known Member

    Joined:
    Sep 4, 2016
    Messages:
    1,543
    Likes Received:
    588
    thanks
     
    CELOBRAZiL likes this.
  5. zm199418

    zm199418 Active Member

    Joined:
    Apr 1, 2019
    Messages:
    722
    Likes Received:
    43
    thanks
     
    CELOBRAZiL likes this.