Olivia Holt - Bad Girlfriend [ProRes 1080] idfrann!

Discussion in 'PRORES HD' started by fstambuk, Jul 28, 2021.

  1. fstambuk

    fstambuk ProRes & Master https://proresmvs.bookmark.com V . I . P.

    Joined:
    Sep 21, 2014
    Messages:
    2,061
    Likes Received:
    6,677
    [​IMG]

    Code:
    Format                                   : MPEG-4
    Format profile                           : QuickTime
    Codec ID                                 : qt   2005.03 (qt  )
    File size                                : 2.16 GiB
    Duration                                 : 4 min 1 s
    Overall bit rate mode                    : Variable
    Overall bit rate                         : 76.9 Mb/s
    Encoded date                             : UTC 2019-09-30 17:27:36
    Tagged date                              : UTC 2019-09-30 17:31:36
    Writing library                          : Apple QuickTime
    TIM                                      : 00:00:00:00
    TSC                                      : 24000
    TSZ                                      : 1001
    
    Video
    ID                                       : 1
    Format                                   : ProRes
    Format version                           : Version 0
    Format profile                           : 422 LT
    Codec ID                                 : apcs
    Duration                                 : 4 min 1 s
    Bit rate mode                            : Variable
    Bit rate                                 : 75.3 Mb/s
    Width                                    : 1 920 pixels
    Height                                   : 1 080 pixels
    Display aspect ratio                     : 16:9
    Frame rate mode                          : Constant
    Frame rate                               : 23.976 (24000/1001) FPS
    Color space                              : YUV
    Chroma subsampling                       : 4:2:2
    Scan type                                : Progressive
    Bits/(Pixel*Frame)                       : 1.514
    Stream size                              : 2.12 GiB (98%)
    Writing library                          : Apple
    Language                                 : English
    Encoded date                             : UTC 2019-09-30 17:27:36
    Tagged date                              : UTC 2019-09-30 17:27:36
    Color primaries                          : BT.709
    Transfer characteristics                 : BT.709
    Matrix coefficients                      : BT.709
    
    Audio
    ID                                       : 2
    Format                                   : PCM
    Format settings                          : Little / Signed
    Codec ID                                 : sowt
    Duration                                 : 4 min 1 s
    Bit rate mode                            : Constant
    Bit rate                                 : 1 536 kb/s
    Channel(s)                               : 2 channels
    Channel layout                           : L R
    Sampling rate                            : 48.0 kHz
    Bit depth                                : 16 bits
    Stream size                              : 44.3 MiB (2%)
    Language                                 : English
    Encoded date                             : UTC 2019-09-30 17:27:36
    Tagged date                              : UTC 2019-09-30 17:27:36
    
    Other
    ID                                       : 3
    Type                                     : Time code
    Format                                   : QuickTime TC
    Duration                                 : 4 min 1 s
    Frame rate                               : 23.976 (24000/1001) FPS
    Time code of first frame                 : 00:00:00:00
    Time code, striped                       : Yes
    Language                                 : English
    Encoded date                             : UTC 2019-09-30 17:27:36
    Tagged date                              : UTC 2019-09-30 17:27:36
    


    Hidden Content:
    You must reply before you can see the hidden data contained here.
     
  2. CELOBRAZiL

    CELOBRAZiL Well-Known Member Capper V . I . P. Donor

    Joined:
    Oct 2, 2013
    Messages:
    12,761
    Likes Received:
    45,856
    Thanks! :)
     
  3. Mayiti

    Mayiti Well-Known Member

    Joined:
    Aug 20, 2020
    Messages:
    1,684
    Likes Received:
    106
    Merci beaucoup
     
  4. Plazik

    Plazik Active Member

    Joined:
    Oct 7, 2013
    Messages:
    290
    Likes Received:
    40
    thanks!
     
  5. zm199418

    zm199418 Active Member

    Joined:
    Apr 1, 2019
    Messages:
    711
    Likes Received:
    36
    thanks
     
  6. mishabez

    mishabez Member

    Joined:
    Aug 15, 2019
    Messages:
    96
    Likes Received:
    0
    rtyrty
     
  7. schoumann

    schoumann Active Member

    Joined:
    Nov 26, 2019
    Messages:
    995
    Likes Received:
    75
  8. kajhsdkjahsdg

    kajhsdkjahsdg Member

    Joined:
    Jun 26, 2021
    Messages:
    82
    Likes Received:
    29
  9. nocturn999

    nocturn999 Active Member

    Joined:
    Jul 17, 2014
    Messages:
    350
    Likes Received:
    78
  10. tetard

    tetard Super Moderator Super Moderator V . I . P.

    Joined:
    Mar 29, 2014
    Messages:
    6,209
    Likes Received:
    7,536
    Thanks
     
  11. multimediafm

    multimediafm Well-Known Member Archiver Donor

    Joined:
    Mar 27, 2014
    Messages:
    21,070
    Likes Received:
    2,505
  12. buffnfaith

    buffnfaith Active Member

    Joined:
    Jun 24, 2014
    Messages:
    356
    Likes Received:
    32
  13. tegibu

    tegibu Well-Known Member

    Joined:
    Jan 9, 2018
    Messages:
    1,136
    Likes Received:
    763
    thanks