DVD O-Town - All Or Nothing (Clean) [VOB]

Discussion in 'SD' started by claudio1301, Apr 22, 2021.

  1. claudio1301

    claudio1301 Well-Known Member V . I . P.

    Joined:
    Oct 2, 2018
    Messages:
    1,784
    Likes Received:
    4,358
    [​IMG]
    Code:
    General
    Complete name                  : O-Town - All Or Nothing (Clean).VOB
    Format                         : MPEG-PS
    File size                      : 207 MiB
    Duration                       : 4 min 13 s
    Overall bit rate mode          : Variable
    Overall bit rate               : 6 845 kb/s
    
    Video
    ID                             : 224 (0xE0)
    Format                         : MPEG Video
    Format version                 : Version 2
    Format profile                 : Main@Main
    Format settings                : CustomMatrix / BVOP
    Format settings, BVOP          : Yes
    Format settings, Matrix        : Custom
    Format settings, GOP           : M=3, N=12
    Format settings, picture struc : Frame
    Duration                       : 4 min 13 s
    Bit rate mode                  : Variable
    Bit rate                       : 6 485 kb/s
    Maximum bit rate               : 9 800 kb/s
    Width                          : 720 pixels
    Height                         : 576 pixels
    Display aspect ratio           : 4:3
    Frame rate                     : 25.000 FPS
    Standard                       : PAL
    Color space                    : YUV
    Chroma subsampling             : 4:2:0
    Bit depth                      : 8 bits
    Scan type                      : Interlaced
    Scan order                     : Top Field First
    Compression mode               : Lossy
    Bits/(Pixel*Frame)             : 0.625
    Stream size                    : 196 MiB (95%)
    
    Audio
    ID                             : 189 (0xBD)-128 (0x80)
    Format                         : AC-3
    Format/Info                    : Audio Coding 3
    Commercial name                : Dolby Digital
    Muxing mode                    : DVD-Video
    Duration                       : 4 min 13 s
    Bit rate mode                  : Constant
    Bit rate                       : 224 kb/s
    Channel(s)                     : 2 channels
    Channel layout                 : L R
    Sampling rate                  : 48.0 kHz
    Frame rate                     : 31.250 FPS (1536 SPF)
    Compression mode               : Lossy
    Delay relative to video        : -224 ms
    Stream size                    : 6.78 MiB (3%)
    Service kind                   : Complete Main
    
    Menu
    Host: Mediafire
    Hidden Content:
    You must reply before you can see the hidden data contained here.
     
    CELOBRAZiL likes this.
  2. Loading...


  3. revili181920

    revili181920 Active Member

    Joined:
    Apr 16, 2020
    Messages:
    739
    Likes Received:
    39
  4. CELOBRAZiL

    CELOBRAZiL Well-Known Member Capper V . I . P. Donor

    Joined:
    Oct 2, 2013
    Messages:
    10,643
    Likes Received:
    38,391
    Thanks! :)
     
  5. jfsilva28

    jfsilva28 Well-Known Member

    Joined:
    May 9, 2018
    Messages:
    1,911
    Likes Received:
    180
    Gracias
     
  6. kevinl203

    kevinl203 Member

    Joined:
    Feb 25, 2016
    Messages:
    871
    Likes Received:
    12
    Thanks...
     
  7. Moogoperator

    Moogoperator Active Member

    Joined:
    Nov 10, 2020
    Messages:
    1,286
    Likes Received:
    20