Nicky Jam & Enrique Iglesias - El Perdon (MTVIdol-1080i-DD2.0)-Olgold

Discussion in 'MTV IDOL' started by Olgold, Aug 20, 2015.

  1. Olgold

    Olgold Well-Known Member Capper

    Joined:
    Aug 19, 2015
    Messages:
    436
    Likes Received:
    2,111
    [​IMG]
    General
    Format : MPEG-TS
    File size : 91.0 MiB
    Duration : 3mn 25s
    Overall bit rate mode : Variable
    Overall bit rate : 3 707 Kbps

    Video
    Format : AVC
    Format/Info : Advanced Video Codec
    Format profile : High@L4
    Format settings, CABAC : Yes
    Format settings, ReFrames : 4 frames
    Duration : 3mn 25s
    Bit rate : 3 330 Kbps
    Width : 1 920 pixels
    Height : 1 080 pixels
    Display aspect ratio : 16:9
    Frame rate : 25.000 fps
    Standard : Component
    Color space : YUV
    Chroma subsampling : 4:2:0
    Bit depth : 8 bits
    Scan type : MBAFF
    Scan order : Top Field First
    Bits/(Pixel*Frame) : 0.064
    Stream size : 81.7 MiB (90%)
    Encryption : Seca Mediaguard 1/2
    Color range : Limited

    Audio
    Format : AC-3
    Format/Info : Audio Coding 3
    Mode extension : CM (complete main)
    Format settings, Endianness : Big
    Duration : 3mn 25s
    Bit rate mode : Constant
    Bit rate : 192 Kbps
    Channel(s) : 2 channels
    Channel positions : Front: L R
    Sampling rate : 48.0 KHz
    Compression mode : Lossy
    Delay relative to video : -23ms
    Stream size : 4.71 MiB (5%)
    Language : French

    Hidden Content:
    You must reply before you can see the hidden data contained here.
     
  2. Loading...


  3. 777josem

    777josem ProRes 1080p LPCM V . I . P. Uploader

    Joined:
    Sep 1, 2014
    Messages:
    3,903
    Likes Received:
    5,990
    Thank you so much!
     
  4. Crusha

    Crusha Well-Known Member Capper V . I . P.

    Joined:
    Oct 15, 2014
    Messages:
    2,575
    Likes Received:
    4,494
    thank you
     
  5. rhea

    rhea Well-Known Member

    Joined:
    Jan 6, 2014
    Messages:
    12,281
    Likes Received:
    2,471
    thank you so much
     
  6. cero

    cero Member

    Joined:
    Nov 1, 2013
    Messages:
    166
    Likes Received:
    9
    cool latin video
     
  7. sebasswift

    sebasswift Member

    Joined:
    Oct 26, 2015
    Messages:
    117
    Likes Received:
    5
    MORE LAtin video upload
     
  8. akon111

    akon111 Well-Known Member

    Joined:
    Dec 29, 2015
    Messages:
    791
    Likes Received:
    577
    thanks
     
  9. brownbradpitt613

    brownbradpitt613 Active Member

    Joined:
    Sep 3, 2017
    Messages:
    755
    Likes Received:
    34
    thanks!!!
     
  10. Malitaxd

    Malitaxd Active Member

    Joined:
    Jun 21, 2019
    Messages:
    595
    Likes Received:
    40
    graciass
     
  11. sebascasilda

    sebascasilda Active Member

    Joined:
    May 17, 2018
    Messages:
    297
    Likes Received:
    59
    el perdon