FEED MTV Europe Music Awards 2017 BACKHAUL FEED 1080i H.264 30Mbps MPA2.0-NTb HDMania

Discussion in 'HD Live Performances' started by DULA PEEP, Jan 18, 2022.

  1. DULA PEEP

    DULA PEEP SUPER MОDERATOR Staff Member Super Moderator Uploader V . I . P. Cloud Drive

    Joined:
    Dec 4, 2014
    Threads:
    763
    Messages:
    3,620
    Likes Received:
    17,539
    [​IMG]

    Format : MPEG-TS
    File size : 23.4 GiB
    Duration : 1 h 43 min
    Overall bit rate mode : Variable
    Overall bit rate : 32.3 Mb/s

    Video
    ID : 3020 (0xBCC)
    Menu ID : 1 (0x1)
    Format : AVC
    Format/Info : Advanced Video Codec
    Format profile : High@L4.1
    Format settings, CABAC : Yes
    Format settings, ReFrames : 4 frames
    Codec ID : 27
    Duration : 1 h 43 min
    Bit rate : 30.5 Mb/s
    Width : 1 920 pixels
    Height : 1 080 pixels
    Display aspect ratio : 16:9
    Frame rate : 25.000 FPS
    Color space : YUV
    Chroma subsampling : 4:2:0
    Bit depth : 8 bits
    Scan type : Interlaced
    Scan type, store method : Separated fields
    Scan order : Top Field First
    Bits/(Pixel*Frame) : 0.588
    Stream size : 22.0 GiB (94%)
    Color range : Limited
    Color primaries : BT.709
    Transfer characteristics : BT.709
    Matrix coefficients : BT.709

    Audio
    ID : 3021 (0xBCD)
    Menu ID : 1 (0x1)
    Format : MPEG Audio
    Format version : Version 1
    Format profile : Layer 2
    Codec ID : 3
    Duration : 1 h 43 min
    Bit rate mode : Constant
    Bit rate : 256 kb/s
    Channel(s) : 2 channels
    Sampling rate : 48.0 kHz
    Compression mode : Lossy
    Delay relative to video : -120 ms
    Stream size : 190 MiB (1%)
    Language : English

    [​IMG]
    Hidden Content:
    You must either reply or click 'Like' to see the hidden information contained here.
     
    drmac, pardi, Mirrazi and 10 others like this.
  2. Loading...


  3. mariellisaa

    mariellisaa Well-Known Member

    Joined:
    Jan 17, 2016
    Threads:
    129
    Messages:
    1,414
    Likes Received:
    1,080
    Thanks i was looking for this. Have you got maybe red carpet from this show?
     
  4. DULA PEEP

    DULA PEEP SUPER MОDERATOR Staff Member Super Moderator Uploader V . I . P. Cloud Drive

    Joined:
    Dec 4, 2014
    Threads:
    763
    Messages:
    3,620
    Likes Received:
    17,539
    I don’t download any Red Carpets. Sorry :oops:
     
    mariellisaa likes this.
  5. JPGAmbrosino

    JPGAmbrosino Well-Known Member

    Joined:
    Jul 30, 2016
    Threads:
    9
    Messages:
    6,818
    Likes Received:
    369
    txsssssssssssssss
     
  6. plwww

    plwww Well-Known Member

    Joined:
    May 28, 2016
    Threads:
    6
    Messages:
    1,813
    Likes Received:
    156
    Thank you so much
     
  7. mariellisaa

    mariellisaa Well-Known Member

    Joined:
    Jan 17, 2016
    Threads:
    129
    Messages:
    1,414
    Likes Received:
    1,080
    Thanks for replying
     
  8. JackSparrowFH

    JackSparrowFH Member

    Joined:
    Oct 3, 2021
    Threads:
    0
    Messages:
    110
    Likes Received:
    2
  9. plumpss

    plumpss Member

    Joined:
    Apr 28, 2018
    Threads:
    0
    Messages:
    152
    Likes Received:
    7
    thanks
     
  10. salinda

    salinda Well-Known Member

    Joined:
    Nov 14, 2018
    Threads:
    0
    Messages:
    2,229
    Likes Received:
    104
    Thank you
     
  11. multimediafm

    multimediafm Well-Known Member V . I . P. Collector Donor

    Joined:
    Mar 27, 2014
    Threads:
    45
    Messages:
    23,183
    Likes Received:
    3,193
  12. isham023

    isham023 Well-Known Member

    Joined:
    Nov 30, 2013
    Threads:
    1
    Messages:
    3,454
    Likes Received:
    179
  13. 1stb2s

    1stb2s Active Member

    Joined:
    Aug 24, 2019
    Threads:
    2
    Messages:
    879
    Likes Received:
    100
    THANKS
     
  14. xabieroyo

    xabieroyo Active Member

    Joined:
    May 30, 2017
    Threads:
    21
    Messages:
    381
    Likes Received:
    205
    thanksss
     
  15. lemony79

    lemony79 Member

    Joined:
    May 15, 2021
    Threads:
    0
    Messages:
    158
    Likes Received:
    7
  16. klodrik

    klodrik Well-Known Member

    Joined:
    May 29, 2017
    Threads:
    0
    Messages:
    2,106
    Likes Received:
    171
    Thanks a lot
     
  17. Andreykay

    Andreykay Member

    Joined:
    Mar 7, 2020
    Threads:
    0
    Messages:
    284
    Likes Received:
    13
  18. Mirrazi

    Mirrazi New Member

    Joined:
    Apr 7, 2022
    Threads:
    0
    Messages:
    26
    Likes Received:
    1
    Thanks
     
  19. asexycowboy

    asexycowboy Well-Known Member

    Joined:
    Apr 6, 2015
    Threads:
    0
    Messages:
    2,006
    Likes Received:
    168
    Thank you so much
     
  20. pardi

    pardi Member

    Joined:
    Oct 10, 2017
    Threads:
    3
    Messages:
    514
    Likes Received:
    23
    thanks!
     
  21. aaliyah2009

    aaliyah2009 Well-Known Member

    Joined:
    Feb 2, 2017
    Threads:
    28
    Messages:
    3,527
    Likes Received:
    234