MASTER Mark Ronson - Uptown Funk (feat. Bruno Mars) [Master 1080p x265 10bit-HosseinXO]

Discussion in 'MASTER & MASTER RIP' started by HosseinXO, Jul 21, 2021.

  1. HosseinXO

    HosseinXO XO 'Til We Overdose V . I . P. Uploader

    Joined:
    May 13, 2016
    Messages:
    1,691
    Likes Received:
    11,548
    [​IMG]
    Code:
    Format                                   : Matroska
    Format version                           : Version 4
    File size                                : 550 MiB
    Duration                                 : 4 min 37 s
    Overall bit rate                         : 16.6 Mb/s
    Encoded date                             : UTC 2021-07-20 03:07:38
    Writing application                      : mkvmerge v48.0.0 ('Fortress Around Your Heart') 64-bit
    Writing library                          : libebml v1.4.0 + libmatroska v1.6.0
    
    Video
    ID                                       : 1
    Format                                   : HEVC
    Format/Info                              : High Efficiency Video Coding
    Format profile                           : Main 10@L5.1@High
    Codec ID                                 : V_MPEGH/ISO/HEVC
    Duration                                 : 4 min 37 s
    Bit rate                                 : 15.0 Mb/s
    Width                                    : 1 920 pixels
    Height                                   : 1 080 pixels
    Display aspect ratio                     : 16:9
    Frame rate mode                          : Constant
    Frame rate                               : 23.976 (24000/1001) FPS
    Original frame rate                      : 23.976 (23976/1000) FPS
    Color space                              : YUV
    Chroma subsampling                       : 4:2:0
    Bit depth                                : 10 bits
    Bits/(Pixel*Frame)                       : 0.301
    Stream size                              : 496 MiB (90%)
    Writing library                          : x265 3.5+8-57e817329:[Windows][GCC 10.2.0][64 bit] 10bit
    Encoding settings                        : cpuid=1049583 / frame-threads=1 / numa-pools=2,0 / wpp / no-pmode / no-pme / no-psnr / no-ssim / log-level=2 / input-csp=1 / input-res=1920x1080 / interlace=0 / total-frames=0 / level-idc=51 / high-tier=1 / uhd-bd=0 / ref=6 / no-allow-non-conformance / no-repeat-headers / annexb / no-aud / no-hrd / info / hash=0 / no-temporal-layers / no-open-gop / min-keyint=23 / keyint=250 / gop-lookahead=0 / bframes=16 / b-adapt=2 / b-pyramid / bframe-bias=0 / rc-lookahead=20 / lookahead-slices=0 / scenecut=40 / hist-scenecut=0 / radl=0 / no-splice / no-intra-refresh / ctu=64 / min-cu-size=8 / no-rect / no-amp / max-tu-size=32 / tu-inter-depth=1 / tu-intra-depth=1 / limit-tu=0 / rdoq-level=2 / dynamic-rd=0.00 / ssim-rd / signhide / no-tskip / nr-intra=0 / nr-inter=0 / no-constrained-intra / strong-intra-smoothing / max-merge=3 / limit-refs=0 / limit-modes / me=2 / subme=7 / merange=57 / temporal-mvp / no-frame-dup / no-hme / weightp / no-weightb / no-analyze-src-pics / deblock=-1:-1 / sao / no-sao-non-deblock / rd=3 / selective-sao=4 / no-early-skip / rskip / no-fast-intra / no-tskip-fast / no-cu-lossless / b-intra / no-splitrd-skip / rdpenalty=0 / psy-rd=2.50 / psy-rdoq=10.00 / no-rd-refine / no-lossless / cbqpoffs=-2 / crqpoffs=-2 / rc=abr / bitrate=15000 / qcomp=0.60 / qpstep=4 / stats-write=0 / stats-read=2 / cplxblur=20.0 / qblur=0.5 / vbv-maxrate=160000 / vbv-bufsize=160000 / vbv-init=0.9 / min-vbv-fullness=50.0 / max-vbv-fullness=80.0 / ipratio=1.40 / pbratio=1.30 / aq-mode=1 / aq-strength=0.00 / cutree / zone-count=0 / no-strict-cbr / qg-size=32 / no-rc-grain / qpmax=69 / qpmin=0 / no-const-vbv / sar=1 / overscan=0 / videoformat=5 / range=0 / colorprim=1 / transfer=1 / colormatrix=1 / chromaloc=0 / display-window=0 / cll=0,0 / min-luma=0 / max-luma=1023 / log2-max-poc-lsb=8 / vui-timing-info / vui-hrd-info / slices=1 / opt-qp-pps / opt-ref-list-length-pps / no-multi-pass-opt-rps / scenecut-bias=0.05 / hist-threshold=0.03 / no-opt-cu-delta-qp / no-aq-motion / no-hdr10 / no-hdr10-opt / no-dhdr10-opt / no-idr-recovery-sei / analysis-reuse-level=0 / analysis-save-reuse-level=0 / analysis-load-reuse-level=0 / scale-factor=0 / refine-intra=0 / refine-inter=0 / refine-mv=1 / refine-ctu-distortion=0 / limit-sao / ctu-info=0 / no-lowpass-dct / refine-analysis-type=0 / copy-pic=1 / max-ausize-factor=1.0 / no-dynamic-refine / no-single-sei / no-hevc-aq / no-svt / no-field / qp-adaptation-range=1.00 / scenecut-aware-qp=0conformance-window-offsets / right=0 / bottom=0 / decoder-max-rate=0 / no-vbv-live-multi-pass
    Language                                 : English
    Default                                  : Yes
    Forced                                   : Yes
    Color range                              : Limited
    Color primaries                          : BT.709
    Transfer characteristics                 : BT.709
    Matrix coefficients                      : BT.709
    
    Audio
    ID                                       : 2
    Format                                   : PCM
    Format settings                          : Little / Signed
    Codec ID                                 : A_PCM/INT/LIT
    Duration                                 : 4 min 37 s
    Bit rate mode                            : Constant
    Bit rate                                 : 1 536 kb/s
    Channel(s)                               : 2 channels
    Sampling rate                            : 48.0 kHz
    Frame rate                               : 32.002 FPS (1500 SPF)
    Bit depth                                : 16 bits
    Stream size                              : 50.8 MiB (9%)
    Language                                 : English
    Default                                  : Yes
    Forced                                   : No
    [​IMG]
    Hidden Content:
    You must either reply or click 'Like' to see the hidden information contained here.
     
    Rafraffa, q11176641, eks22 and 2 others like this.
  2. Loading...


  3. gino bel

    gino bel Member

    Joined:
    Jul 30, 2020
    Messages:
    433
    Likes Received:
    18
  4. Olaflyn

    Olaflyn Well-Known Member

    Joined:
    May 25, 2017
    Messages:
    2,999
    Likes Received:
    196
    Thanks
     
  5. antoniojoseguizilini

    antoniojoseguizilini Well-Known Member

    Joined:
    Dec 2, 2016
    Messages:
    3,245
    Likes Received:
    302
  6. Honglong

    Honglong Well-Known Member

    Joined:
    Feb 6, 2020
    Messages:
    1,243
    Likes Received:
    76
    thanks
     
  7. dandan

    dandan Active Member

    Joined:
    Nov 12, 2020
    Messages:
    262
    Likes Received:
    27
    thanks
     
  8. Mayiti

    Mayiti Well-Known Member

    Joined:
    Aug 20, 2020
    Messages:
    1,510
    Likes Received:
    78
    Merci bien
     
  9. joeldm0018

    joeldm0018 Member

    Joined:
    Sep 27, 2018
    Messages:
    191
    Likes Received:
    7
    Thanks!
     
  10. hemunshu

    hemunshu Member

    Joined:
    Feb 12, 2016
    Messages:
    455
    Likes Received:
    5
    gggggggg
     
  11. q11176641

    q11176641 Member

    Joined:
    Oct 8, 2017
    Messages:
    277
    Likes Received:
    15
  12. javiervitorero

    javiervitorero Member

    Joined:
    Jul 24, 2021
    Messages:
    85
    Likes Received:
    5
  13. Eslam Abosaed

    Eslam Abosaed Member

    Joined:
    Jan 27, 2015
    Messages:
    449
    Likes Received:
    21