DVD Madonna - Love Don't Live Here Anymore (Soulpower Remix) (Promo Only) [VOB]

Discussion in 'SD' started by claudio1301, Apr 22, 2021.

  1. claudio1301

    claudio1301 Well-Known Member V . I . P.

    Joined:
    Oct 2, 2018
    Messages:
    1,784
    Likes Received:
    4,357
    [​IMG]
    Code:
    General
    Complete name                  : Madonna - Love Don't Live Here Anymore (Soulpower Remix) (Promo Only).VOB
    Format                         : MPEG-PS
    File size                      : 206 MiB
    Duration                       : 4 min 39 s
    Overall bit rate mode          : Variable
    Overall bit rate               : 6 202 kb/s
    
    Video
    ID                             : 224 (0xE0)
    Format                         : MPEG Video
    Format version                 : Version 2
    Format profile                 : Main@Main
    Format settings                : CustomMatrix / BVOP
    Format settings, BVOP          : Yes
    Format settings, Matrix        : Custom
    Format settings, GOP           : M=3, N=16
    Format settings, picture struc : Frame
    Duration                       : 4 min 39 s
    Bit rate mode                  : Variable
    Bit rate                       : 4 543 kb/s
    Maximum bit rate               : 8 000 kb/s
    Width                          : 720 pixels
    Height                         : 480 pixels
    Display aspect ratio           : 4:3
    Frame rate                     : 29.970 (30000/1001) FPS
    Standard                       : NTSC
    Color space                    : YUV
    Chroma subsampling             : 4:2:0
    Bit depth                      : 8 bits
    Scan type                      : Interlaced
    Scan order                     : Top Field First
    Compression mode               : Lossy
    Bits/(Pixel*Frame)             : 0.439
    Time code of first frame       : 00:39:31:17
    Time code source               : Group of pictures header
    GOP, Open/Closed               : Closed
    Stream size                    : 151 MiB (73%)
    Color primaries                : BT.601 NTSC
    Transfer characteristics       : BT.601
    Matrix coefficients            : BT.601
    
    Audio
    ID                             : 189 (0xBD)-160 (0xA0)
    Format                         : PCM
    Format settings                : Big / Signed
    Muxing mode                    : DVD-Video
    Duration                       : 4 min 39 s
    Bit rate mode                  : Constant
    Bit rate                       : 1 536 kb/s
    Channel(s)                     : 2 channels
    Sampling rate                  : 48.0 kHz
    Bit depth                      : 16 bits
    Delay relative to video        : 8 ms
    Stream size                    : 51.1 MiB (25%)
    
    Menu
    Host: Mediafire
    Hidden Content:
    You must reply before you can see the hidden data contained here.
     
  2. Loading...


  3. Madamex2000

    Madamex2000 Member

    Joined:
    Aug 5, 2020
    Messages:
    82
    Likes Received:
    15
    Thank you
     
  4. kowalski2016

    kowalski2016 Active Member

    Joined:
    May 18, 2016
    Messages:
    709
    Likes Received:
    47
    thank you!
     
  5. ant1974

    ant1974 Member

    Joined:
    Mar 31, 2017
    Messages:
    171
    Likes Received:
    22
    thank you
     
  6. master468

    master468 Well-Known Member

    Joined:
    Feb 1, 2017
    Messages:
    1,290
    Likes Received:
    190
  7. newkomrad

    newkomrad Active Member

    Joined:
    Jul 12, 2019
    Messages:
    676
    Likes Received:
    47
    Thanks!
     
  8. zmx123

    zmx123 Member

    Joined:
    May 9, 2018
    Messages:
    232
    Likes Received:
    12
  9. CELOBRAZiL

    CELOBRAZiL Well-Known Member Capper V . I . P. Donor

    Joined:
    Oct 2, 2013
    Messages:
    10,643
    Likes Received:
    38,391
    Thanks! :)
     
  10. zielzoeker

    zielzoeker Member

    Joined:
    Nov 8, 2020
    Messages:
    52
    Likes Received:
    2
    Muchas Gracias
     
  11. Ozze

    Ozze Member

    Joined:
    May 28, 2018
    Messages:
    315
    Likes Received:
    21
    Thanks.
     
  12. Denishx

    Denishx Member

    Joined:
    Aug 4, 2014
    Messages:
    316
    Likes Received:
    6
    thank you