Madonna - Don't Tell Me (MTVIdol-1080i-DD2.0)-Olgold

Discussion in 'MTV IDOL' started by Olgold, Aug 27, 2015.

  1. Olgold

    Olgold Well-Known Member Capper

    Joined:
    Aug 19, 2015
    Messages:
    436
    Likes Received:
    2,111
    [​IMG]
    General
    Format : MPEG-TS
    File size : 216 MiB
    Duration : 4mn 36s
    Overall bit rate mode : Variable
    Overall bit rate : 6 560 Kbps

    Video
    Format : AVC
    Format/Info : Advanced Video Codec
    Format profile : High@L4
    Format settings, CABAC : Yes
    Format settings, ReFrames : 4 frames
    Duration : 4mn 36s
    Bit rate : 6 042 Kbps
    Width : 1 920 pixels
    Height : 1 080 pixels
    Display aspect ratio : 16:9
    Frame rate : 25.000 fps
    Standard : Component
    Color space : YUV
    Chroma subsampling : 4:2:0
    Bit depth : 8 bits
    Scan type : MBAFF
    Scan order : Top Field First
    Bits/(Pixel*Frame) : 0.117
    Stream size : 199 MiB (92%)
    Encryption : Seca Mediaguard 1/2
    Color range : Limited

    Audio
    Format : AC-3
    Format/Info : Audio Coding 3
    Mode extension : CM (complete main)
    Format settings, Endianness : Big
    Duration : 4mn 36s
    Bit rate mode : Constant
    Bit rate : 192 Kbps
    Channel(s) : 2 channels
    Channel positions : Front: L R
    Sampling rate : 48.0 KHz
    Compression mode : Lossy
    Delay relative to video : -31ms
    Stream size : 6.32 MiB (3%)
    Language : French

    Hidden Content:
    You must reply before you can see the hidden data contained here.
     
  2. Loading...


  3. lifevirgin

    lifevirgin Active Member

    Joined:
    Feb 15, 2014
    Messages:
    975
    Likes Received:
    67
     
  4. 777josem

    777josem ProRes 1080p LPCM V . I . P. Uploader

    Joined:
    Sep 1, 2014
    Messages:
    3,903
    Likes Received:
    5,990
    :DThank you so much!
     
  5. rhea

    rhea Well-Known Member

    Joined:
    Jan 6, 2014
    Messages:
    12,281
    Likes Received:
    2,471
    thank you so much
     
  6. MaggieS

    MaggieS Well-Known Member

    Joined:
    Sep 19, 2014
    Messages:
    1,262
    Likes Received:
    85
  7. mike gunen

    mike gunen Well-Known Member

    Joined:
    Nov 9, 2013
    Messages:
    1,237
    Likes Received:
    74
    thank you
     
  8. Crusha

    Crusha Well-Known Member Capper V . I . P.

    Joined:
    Oct 15, 2014
    Messages:
    2,575
    Likes Received:
    4,494
    thank you
     
  9. HDMjuzik

    HDMjuzik Member

    Joined:
    Feb 4, 2015
    Messages:
    79
    Likes Received:
    5
    thank you
     
  10. lukierrywhere

    lukierrywhere Member

    Joined:
    May 1, 2015
    Messages:
    244
    Likes Received:
    10
  11. cero

    cero Member

    Joined:
    Nov 1, 2013
    Messages:
    166
    Likes Received:
    9
    cool song
     
  12. sebasswift

    sebasswift Member

    Joined:
    Oct 26, 2015
    Messages:
    117
    Likes Received:
    5
    MADONNA PITCH
     
  13. J_Pablo

    J_Pablo Well-Known Member

    Joined:
    Nov 27, 2013
    Messages:
    1,078
    Likes Received:
    749
    Thanks you!
     
  14. Flaxdevil

    Flaxdevil Member

    Joined:
    May 25, 2014
    Messages:
    308
    Likes Received:
    14
    Thanks
     
  15. Snorom6

    Snorom6 Well-Known Member V . I . P. Uploader

    Joined:
    Dec 17, 2015
    Messages:
    4,239
    Likes Received:
    9,838
  16. Dreamer

    Dreamer ♫ SUPER MODERATОR ♫ Staff Member Super Moderator V . I . P. Uploader

    Joined:
    Dec 4, 2014
    Messages:
    3,455
    Likes Received:
    15,058
    Thank you!
     
  17. Jascka

    Jascka Active Member

    Joined:
    Nov 9, 2015
    Messages:
    668
    Likes Received:
    133
    Thanks.
     
  18. yonita

    yonita Active Member

    Joined:
    Mar 7, 2016
    Messages:
    737
    Likes Received:
    69
    Thanks
     
  19. curtron

    curtron Member

    Joined:
    Dec 10, 2015
    Messages:
    68
    Likes Received:
    2
    cheers
     
  20. badine82

    badine82 Member

    Joined:
    Oct 24, 2015
    Messages:
    814
    Likes Received:
    21
  21. maxkeiser

    maxkeiser Well-Known Member Uploader

    Joined:
    Aug 24, 2016
    Messages:
    8,052
    Likes Received:
    29,554
    wahts taht