WEB-RiP Madison Beer presents - Life Support in Concert (2021-03-07) 1080p

Discussion in 'HD Live Performances' started by Gizmo234, Mar 8, 2021.

  1. Gizmo234

    Gizmo234 Active Member

    Joined:
    Oct 21, 2015
    Messages:
    652
    Likes Received:
    97
    [​IMG]

    [​IMG]

    [​IMG]

    [​IMG]

    General
    Complete name : H:\Madison Beer presents - Life Support in Concert (2021-03-07).mp4
    Format : MPEG-4
    Format profile : Base Media / Version 2
    Codec ID : mp42 (mp42/mp41)
    File size : 5.34 GiB
    Duration : 52 min 15 s
    Overall bit rate mode : Variable
    Overall bit rate : 14.6 Mb/s
    Encoded date : UTC 2021-03-07 12:28:41
    Tagged date : UTC 2021-03-07 12:34:36
    TIM : 00:00:00:00
    TSC : 60
    TSZ : 1
    Video
    ID : 1
    Format : AVC
    Format/Info : Advanced Video Codec
    Format profile : High@L4.2
    Format settings : CABAC / 4 Ref Frames
    Format settings, CABAC : Yes
    Format settings, Reference frames : 4 frames
    Format settings, GOP : M=3, N=60
    Codec ID : avc1
    Codec ID/Info : Advanced Video Coding
    Duration : 52 min 15 s
    Bit rate mode : Variable
    Bit rate : 14.3 Mb/s
    Maximum bit rate : 16.0 Mb/s
    Width : 1 920 pixels
    Height : 1 080 pixels
    Display aspect ratio : 16:9
    Frame rate mode : Constant
    Frame rate : 60.000 FPS
    Standard : NTSC
    Color space : YUV
    Chroma subsampling : 4:2:0
    Bit depth : 8 bits
    Scan type : Progressive
    Bits/(Pixel*Frame) : 0.115
    Stream size : 5.22 GiB (98%)
    Language : English
    Encoded date : UTC 2021-03-07 12:28:41
    Tagged date : UTC 2021-03-07 12:28:41
    Color range : Limited
    Color primaries : BT.709
    Transfer characteristics : BT.709
    Matrix coefficients : BT.709
    Codec configuration box : avcC
    Audio
    ID : 2
    Format : AAC LC
    Format/Info : Advanced Audio Codec Low Complexity
    Codec ID : mp4a-40-2
    Duration : 52 min 15 s
    Source duration : 52 min 15 s
    Bit rate mode : Variable
    Bit rate : 317 kb/s
    Maximum bit rate : 420 kb/s
    Channel(s) : 2 channels
    Channel layout : L R
    Sampling rate : 48.0 kHz
    Frame rate : 46.875 FPS (1024 SPF)
    Compression mode : Lossy
    Stream size : 119 MiB (2%)
    Source stream size : 119 MiB (2%)
    Language : English
    Encoded date : UTC 2021-03-07 12:28:42
    Tagged date : UTC 2021-03-07 12:28:42

    Hidden Content:
    You must reply before you can see the hidden data contained here.
     
  2. Loading...


  3. Dilson Nunes

    Dilson Nunes Active Member

    Joined:
    Sep 21, 2014
    Messages:
    788
    Likes Received:
    129
  4. Justin Olsen

    Justin Olsen Member

    Joined:
    May 13, 2019
    Messages:
    189
    Likes Received:
    9
  5. abcdefg

    abcdefg Active Member

    Joined:
    Feb 6, 2018
    Messages:
    910
    Likes Received:
    98
    Thanks
     
  6. fisherTW

    fisherTW Well-Known Member

    Joined:
    Dec 3, 2014
    Messages:
    2,206
    Likes Received:
    821
    Thank you.
     
  7. miguelmc04545

    miguelmc04545 Member

    Joined:
    Sep 3, 2019
    Messages:
    134
    Likes Received:
    14
    thank you
     
  8. alo5h

    alo5h Active Member

    Joined:
    Oct 11, 2018
    Messages:
    467
    Likes Received:
    71
    Tysm!!!!
     
  9. panaceja56

    panaceja56 Member

    Joined:
    Jan 2, 2017
    Messages:
    386
    Likes Received:
    21
  10. sepal1703

    sepal1703 Member

    Joined:
    Jun 11, 2019
    Messages:
    58
    Likes Received:
    8
    thank you
     
  11. speciald

    speciald Active Member

    Joined:
    Dec 18, 2015
    Messages:
    538
    Likes Received:
    53
    thanks
     
  12. zarfed

    zarfed New Member

    Joined:
    Mar 8, 2021
    Messages:
    7
    Likes Received:
    0
    chhers!
     
  13. lorris50700

    lorris50700 New Member

    Joined:
    Mar 4, 2021
    Messages:
    13
    Likes Received:
    0
  14. lorris50700

    lorris50700 New Member

    Joined:
    Mar 4, 2021
    Messages:
    13
    Likes Received:
    0
    jjhjrtttttttt
     
  15. Talisman954

    Talisman954 Member

    Joined:
    Feb 27, 2021
    Messages:
    138
    Likes Received:
    0
  16. batuu

    batuu Member

    Joined:
    Apr 15, 2019
    Messages:
    191
    Likes Received:
    12
    thanks
     
  17. yoereyesr21

    yoereyesr21 Well-Known Member

    Joined:
    Mar 12, 2016
    Messages:
    1,263
    Likes Received:
    169
  18. nicolodivincenzo

    nicolodivincenzo New Member

    Joined:
    Nov 28, 2020
    Messages:
    9
    Likes Received:
    0
  19. itsiconww

    itsiconww Member

    Joined:
    Feb 2, 2020
    Messages:
    195
    Likes Received:
    24
    thxxxxxx
     
  20. werebrownie

    werebrownie New Member

    Joined:
    Dec 31, 2020
    Messages:
    3
    Likes Received:
    0
  21. RIKI23

    RIKI23 Active Member

    Joined:
    Oct 13, 2013
    Messages:
    738
    Likes Received:
    52
    Tysm!!!!