Lykke Li - I Follow Rivers (MTVIdol-1080i-DD2.0)-Olgold

Discussion in 'MTV IDOL' started by Olgold, Aug 20, 2015.

  1. Olgold

    Olgold Well-Known Member Capper

    Joined:
    Aug 19, 2015
    Messages:
    436
    Likes Received:
    2,109
    [​IMG]
    General
    Format : MPEG-TS
    File size : 118 MiB
    Duration : 4mn 39s
    Overall bit rate mode : Variable
    Overall bit rate : 3 535 Kbps

    Video
    Format : AVC
    Format/Info : Advanced Video Codec
    Format profile : High@L4
    Format settings, CABAC : Yes
    Format settings, ReFrames : 4 frames
    Duration : 4mn 39s
    Bit rate : 3 102 Kbps
    Width : 1 920 pixels
    Height : 1 080 pixels
    Display aspect ratio : 16:9
    Frame rate : 25.000 fps
    Standard : Component
    Color space : YUV
    Chroma subsampling : 4:2:0
    Bit depth : 8 bits
    Scan type : MBAFF
    Scan order : Top Field First
    Bits/(Pixel*Frame) : 0.060
    Stream size : 103 MiB (88%)
    Color range : Limited

    Audio
    IFormat : AC-3
    Format/Info : Audio Coding 3
    Mode extension : CM (complete main)
    Format settings, Endianness : Big
    Duration : 4mn 39s
    Bit rate mode : Constant
    Bit rate : 256 Kbps
    Channel(s) : 2 channels
    Channel positions : Front: L R
    Sampling rate : 48.0 KHz
    Compression mode : Lossy
    Delay relative to video : 72ms
    Stream size : 8.53 MiB (7%)
    Language : French
    Language, more info : Clean effects

    Hidden Content:
    You must reply before you can see the hidden data contained here.
     
    rhea, 777josem and CELOBRAZiL like this.
  2. rhea

    rhea Well-Known Member

    Joined:
    Jan 6, 2014
    Messages:
    12,187
    Likes Received:
    2,440
    thank you so much
     
  3. Crusha

    Crusha Well-Known Member Capper V . I . P.

    Joined:
    Oct 15, 2014
    Messages:
    2,575
    Likes Received:
    4,479
    thank you
     
  4. klaus

    klaus Well-Known Member

    Joined:
    Sep 11, 2014
    Messages:
    1,841
    Likes Received:
    106
    thank you
     
  5. Sri Malchik

    Sri Malchik Member

    Joined:
    Jun 6, 2014
    Messages:
    215
    Likes Received:
    8
    thank you!
     
  6. trevorme

    trevorme Well-Known Member

    Joined:
    Jan 12, 2017
    Messages:
    1,470
    Likes Received:
    119
    thanks
     
  7. beryozael

    beryozael Well-Known Member

    Joined:
    Oct 25, 2020
    Messages:
    1,809
    Likes Received:
    119
    спасибо
     
  8. henriquefho

    henriquefho Member

    Joined:
    Jul 19, 2017
    Messages:
    62
    Likes Received:
    13
    Obrigado!