Loreen - Euphoria MASTER ProRes 1080p LPCM2.0

Discussion in 'PRORES HD' started by CELOBRAZiL, Nov 29, 2021.

  1. CELOBRAZiL

    CELOBRAZiL Well-Known Member Capper V . I . P. Donor

    Joined:
    Oct 2, 2013
    Messages:
    14,064
    Likes Received:
    51,583
    Loreen - Euphoria MASTER ProRes 1080p LPCM2.0

    [​IMG]
    [​IMG]



    Format : QuickTime
    Format/Info : Original Apple specifications
    File size : 5.21 GiB
    Duration : 3 min 52 s
    Overall bit rate mode : Variable
    Overall bit rate : 193 Mb/s
    Encoded date : UTC 2012-09-28 13:36:12
    Tagged date : UTC 2012-12-17 12:22:11
    Writing library : Apple QuickTime 7.6.6
    Media/UUID : EECA6FF1-9E12-43C7-8488-C29B1BB051F3
    com.apple.quicktime.player.movie.audio.m : (Binary)

    Video
    ID : 34
    Format : ProRes
    Format version : Version 0
    Format profile : 422 HQ
    Codec ID : apch
    Duration : 3 min 52 s
    Source duration : 3 min 52 s
    Source_Duration_FirstFrame : 20 ms
    Bit rate mode : Variable
    Bit rate : 174 Mb/s
    Width : 1 920 pixels
    Clean aperture width : 1 888 pixels
    Height : 1 080 pixels
    Clean aperture height : 1 062 pixels
    Display aspect ratio : 16:9
    Clean aperture display aspect ratio : 16:9
    Frame rate mode : Constant
    Frame rate : 25.000 FPS
    Color space : YUV
    Chroma subsampling : 4:2:2
    Scan type : Interlaced
    Original scan type : Progressive
    Scan type, store method : Interleaved fields
    Scan order : Top Field First
    Bits/(Pixel*Frame) : 3.364
    Stream size : 4.71 GiB (90%)
    Source stream size : 4.71 GiB (90%)
    Writing library : Apple
    Language : English
    Encoded date : UTC 2012-12-17 12:22:11
    Tagged date : UTC 2012-12-17 12:22:11
    Color primaries : BT.709
    Transfer characteristics : BT.709
    Matrix coefficients : BT.709

    Audio
    ID : 18
    Format : PCM
    Format settings : Little / Signed
    Codec ID : in24
    Duration : 3 min 52 s
    Source duration : 3 min 52 s
    Bit rate mode : Constant
    Bit rate : 2 304 kb/s
    Channel(s) : 2 channels
    Channel layout : L R
    Sampling rate : 48.0 kHz
    Bit depth : 24 bits
    Stream size : 63.7 MiB (1%)
    Source stream size : 63.8 MiB (1%)
    Language : English
    Encoded date : UTC 2012-09-28 13:40:23
    Tagged date : UTC 2012-09-28 15:30:32

    Other
    ID : 33
    Type : Time code
    Format : QuickTime TC
    Duration : 3 min 52 s
    Frame rate : 25.000 FPS
    Time code of first frame : 00:02:00:00
    Time code, striped : Yes
    Title : 001
    Language : English
    Encoded date : UTC 2012-09-28 13:40:23
    Tagged date : UTC 2012-09-28 13:40:23


    Link(s):
    Hidden Content:
    You must either reply or click 'Like' to see the hidden information contained here.
     
  2. Loading...


  3. CELOBRAZiL

    CELOBRAZiL Well-Known Member Capper V . I . P. Donor

    Joined:
    Oct 2, 2013
    Messages:
    14,064
    Likes Received:
    51,583
    :love::love::love:

    Added GOOGLE DRIVE link! :p
     
  4. mg2244

    mg2244 Active Member

    Joined:
    Aug 12, 2014
    Messages:
    841
    Likes Received:
    171
    thank you!
     
    CELOBRAZiL likes this.
  5. MichelleBright

    MichelleBright Well-Known Member

    Joined:
    Jul 20, 2019
    Messages:
    1,868
    Likes Received:
    377
    Thanks
     
    CELOBRAZiL likes this.
  6. Honglong

    Honglong Well-Known Member

    Joined:
    Feb 6, 2020
    Messages:
    2,100
    Likes Received:
    159
    thanks
     
    CELOBRAZiL likes this.
  7. Olsen

    Olsen Active Member

    Joined:
    Aug 3, 2021
    Messages:
    273
    Likes Received:
    70
    Thanks bro.
     
    CELOBRAZiL likes this.
  8. ADRT2014

    ADRT2014 Member

    Joined:
    Jul 11, 2016
    Messages:
    57
    Likes Received:
    5
    thx for re-upload this video
     
    CELOBRAZiL likes this.
  9. VSPACE

    VSPACE Active Member

    Joined:
    Nov 12, 2015
    Messages:
    217
    Likes Received:
    30
    Thanks!!!
     
    CELOBRAZiL likes this.