FEED Little Mix: The Last Show (For Now) (The Confetti Tour) live from O2 Arena London, 14th May 2022

Discussion in 'HD Live Performances' started by UnitedReleases, May 14, 2022.

  1. UnitedReleases

    UnitedReleases Well-Known Member Uploader

    Joined:
    Jan 10, 2016
    Threads:
    260
    Messages:
    872
    Likes Received:
    1,574
    Little Mix: The Last Show (For Now) (The Confetti Tour) live from O2 Arena London, 14th May 2022 (1080i) (Cinema Live) (Feed) (DD2.0) [Maverick]

    [​IMG]
    Satellite Details:
    0.8°W
    11508 V 14500 3/4 QPSK
    ID: Little Mix
    Provider: SES
    H.264 4:2:0 HD
    Bit Rate: 21.570 Mbit/s
    Info: Little Mix: The Last Show (For Now) (The Confetti Tour) live from O2 Arena London, 14th May 2022 (1080i) (Cinema Live) (Feed) (DD2.0)
    URL: https://www.little-mix.com/news/article/#news-49852
    FTA

    Setlist:

    1 - Shout Out to My Ex
    2 - Heartbreak Anthem
    3 - Break Up Song
    4 - Wings
    5 - Power / Gloves Up
    6 - Move
    7 - Secret Love Song, Pt. II
    8 - Woman Like Me
    9 - Happiness
    10 - No More Sad Songs
    11 - Love Me or Leave Me
    12 - Between Us
    13 - Love (Sweet Love)
    14 - Reggaeton Lento Remix
    15 - Wasabi
    16 - Black Magic
    17 - Salute
    18 - Touch
    19 - Only You
    20 - No Time for Tears
    21 - Confetti
    22 - Sweet Melody


    (1080i Feed) (Edited & Encoded to H265)
    [​IMG]
    General
    Complete name : C:\Users\Maverick\Desktop\Little Mix; The Last Show (For Now) (The Confetti Tour) live from O2 Arena London, 14th May 2022 (1080i) (Cinema Live) (Feed) (DD2.0) [Maverick].mkv
    Format : Matroska
    Format version : Version 4
    File size : 11.0 GiB
    Duration : 3 h 0 min
    Overall bit rate : 8743 kb/s
    Movie name : Little Mix: The Last Show (For Now) (The Confetti Tour) live from O2 Arena London, 14th May 2022 (1080i) (Cinema Live) (Feed) (DD2.0) [Maverick]
    Encoded date : UTC 2022-05-15 05:27:03
    Writing application : mkvmerge v59.0.0 ('Shining Star') 64-bit
    Writing library : libebml v1.4.2 + libmatroska v1.6.4

    Video
    ID : 1
    Format : HEVC
    Format/Info : High Efficiency Video Coding
    Format profile : Main 10@L4@Main
    Codec ID : V_MPEGH/ISO/HEVC
    Duration : 3 h 0 min
    Bit rate : 8101 kb/s
    Width : 1920 pixels
    Height : 1080 pixels
    Display aspect ratio : 16:9
    Frame rate mode : Constant
    Frame rate : 25.000 FPS
    Color space : YUV
    Chroma subsampling : 4:2:0
    Bit depth : 10 bits
    Bits/(Pixel*Frame) : 0.156
    Stream size : 10.2 GiB (93%)
    Title : Little Mix: The Last Show (For Now) (The Confetti Tour) live from O2 Arena London, 14th May 2022 (1080i) (Cinema Live) (Feed) (DD2.0) [Maverick]
    Writing library : x265 3.5+10+13-7c9bc0cb14:[Windows][GCC 10.2.0][64 bit] 10bit
    Encoding settings : cpuid=1111039 / frame-threads=3 / numa-pools=12 / wpp / no-pmode / no-pme / no-psnr / no-ssim / log-level=2 / input-csp=1 / input-res=1920x1080 / interlace=0 / total-frames=270151 / level-idc=0 / high-tier=1 / uhd-bd=0 / ref=3 / no-allow-non-conformance / no-repeat-headers / annexb / no-aud / no-eob / no-eos / no-hrd / info / hash=0 / no-temporal-layers / open-gop / min-keyint=25 / keyint=250 / gop-lookahead=0 / bframes=4 / b-adapt=2 / b-pyramid / bframe-bias=0 / rc-lookahead=20 / lookahead-slices=6 / scenecut=40 / hist-scenecut=0 / radl=0 / no-splice / no-intra-refresh / ctu=64 / min-cu-size=8 / no-rect / no-amp / max-tu-size=32 / tu-inter-depth=1 / tu-intra-depth=1 / limit-tu=0 / rdoq-level=0 / dynamic-rd=0.00 / no-ssim-rd / signhide / no-tskip / nr-intra=0 / nr-inter=0 / no-constrained-intra / strong-intra-smoothing / max-merge=3 / limit-refs=3 / no-limit-modes / me=1 / subme=2 / merange=57 / temporal-mvp / no-frame-dup / no-hme / weightp / no-weightb / no-analyze-src-pics / deblock=0:0 / sao / no-sao-non-deblock / rd=3 / selective-sao=4 / early-skip / rskip / no-fast-intra / no-tskip-fast / no-cu-lossless / b-intra / no-splitrd-skip / rdpenalty=0 / psy-rd=2.00 / psy-rdoq=0.00 / no-rd-refine / no-lossless / cbqpoffs=0 / crqpoffs=0 / rc=crf / crf=18.0 / qcomp=0.60 / qpstep=4 / stats-write=0 / stats-read=0 / ipratio=1.40 / pbratio=1.30 / aq-mode=2 / aq-strength=1.00 / cutree / zone-count=0 / no-strict-cbr / qg-size=32 / no-rc-grain / qpmax=69 / qpmin=0 / no-const-vbv / sar=0 / overscan=0 / videoformat=5 / range=0 / colorprim=1 / transfer=1 / colormatrix=1 / chromaloc=0 / display-window=0 / cll=0,0 / min-luma=0 / max-luma=1023 / log2-max-poc-lsb=8 / vui-timing-info / vui-hrd-info / slices=1 / no-opt-qp-pps / no-opt-ref-list-length-pps / no-multi-pass-opt-rps / scenecut-bias=0.05 / hist-threshold=0.03 / no-opt-cu-delta-qp / no-aq-motion / no-hdr10 / no-hdr10-opt / no-dhdr10-opt / no-idr-recovery-sei / analysis-reuse-level=0 / analysis-save-reuse-level=0 / analysis-load-reuse-level=0 / scale-factor=0 / refine-intra=0 / refine-inter=0 / refine-mv=1 / refine-ctu-distortion=0 / no-limit-sao / ctu-info=0 / no-lowpass-dct / refine-analysis-type=0 / copy-pic=1 / max-ausize-factor=1.0 / no-dynamic-refine / no-single-sei / no-hevc-aq / no-svt / no-field / qp-adaptation-range=1.00 / scenecut-aware-qp=0 / conformance-window-right-offset=0 / conformance-window-bottom-offset=0 / decoder-max-rate=0 / no-vbv-live-multi-pass
    Language : English
    Default : Yes
    Forced : Yes
    Color range : Limited
    Color primaries : BT.709
    Transfer characteristics : BT.709
    Matrix coefficients : BT.709

    Audio
    ID : 2
    Format : AC-3
    Format/Info : Audio Coding 3
    Commercial name : Dolby Digital
    Codec ID : A_AC3
    Duration : 3 h 0 min
    Bit rate mode : Constant
    Bit rate : 640 kb/s
    Channel(s) : 2 channels
    Channel layout : L R
    Sampling rate : 48.0 kHz
    Frame rate : 31.250 FPS (1536 SPF)
    Compression mode : Lossy
    Stream size : 824 MiB (7%)
    Title : DD2.0
    Language : English
    Service kind : Complete Main
    Default : Yes
    Forced : Yes

    Menu
    00:00:00.000 : :Chapter 1
    Hidden Content:
    You must either reply or click 'Like' to see the hidden information contained here.

    (1080i Feed) (Uncompressed & Unedited)
    General
    Complete name : Little Mix; The Last Show (For Now) (The Confetti Tour) live from O2 Arena London, 14th May 2022 (1080i) (Feed) (DD2.0) [Maverick].ts
    Format : MPEG-TS
    File size : 39.9 GiB
    Duration : 4 h 27 min
    Overall bit rate mode : Variable
    Overall bit rate : 21.4 Mb/s

    Video
    ID : 2001 (0x7D1)
    Menu ID : 1 (0x1)
    Format : AVC
    Format/Info : Advanced Video Codec
    Format profile : High@L4.1
    Format settings : CABAC / 4 Ref Frames
    Format settings, CABAC : Yes
    Format settings, Reference fra : 4 frames
    Codec ID : 27
    Duration : 4 h 27 min
    Bit rate : 20.1 Mb/s
    Width : 1920 pixels
    Height : 1080 pixels
    Display aspect ratio : 16:9
    Frame rate : 25.000 FPS
    Color space : YUV
    Chroma subsampling : 4:2:0
    Bit depth : 8 bits
    Scan type : Interlaced
    Scan type, store method : Separated fields
    Scan order : Top Field First
    Bits/(Pixel*Frame) : 0.388
    Stream size : 37.5 GiB (94%)
    Color range : Limited
    Color primaries : BT.709
    Transfer characteristics : BT.709
    Matrix coefficients : BT.709

    Audio
    ID : 3101 (0xC1D)
    Menu ID : 1 (0x1)
    Format : MPEG Audio
    Format version : Version 1
    Format profile : Layer 2
    Codec ID : 3
    Duration : 4 h 27 min
    Bit rate mode : Constant
    Bit rate : 192 kb/s
    Channel(s) : 2 channels
    Sampling rate : 48.0 kHz
    Frame rate : 41.667 FPS (1152 SPF)
    Compression mode : Lossy
    Delay relative to video : -448 ms
    Stream size : 367 MiB (1%)
    Language : English

    Menu
    ID : 1001 (0x3E9)
    Menu ID : 1 (0x1)
    Format : AVC / MPEG Audio
    Duration : 4 h 27 min
    List : 2001 (0x7D1) (AVC) / 3101 (0xC1D) (MPEG Audio, English)
    Language : / English
    Maximum bit rate : 200000000
    Hidden Content:
    You must either reply or click 'Like' to see the hidden information contained here.
    (1080i Feed) (Edited & Encoded to H264)
    General
    Complete name : C:\Users\Maverick\Desktop\Little Mix; The Last Show (For Now) (The Confetti Tour) live from O2 Arena London, 14th May 2022 (1080i) (Cinema Live) (Feed) (DD2.0) [Maverick] (H264).mkv
    Format : Matroska
    Format version : Version 4
    File size : 12.8 GiB
    Duration : 3 h 0 min
    Overall bit rate : 10.2 Mb/s
    Encoded date : UTC 2022-05-15 11:25:03
    Writing application : mkvmerge v13.0.0 ('The Juggler') 64bit
    Writing library : libebml v1.3.4 + libmatroska v1.4.5
    Writing application : Internet Friendly Media Encoder v7.7 ('Prism Ark')
    library : IFME v7.7 amd64 windows

    Video
    ID : 1
    Format : AVC
    Format/Info : Advanced Video Codec
    Format profile : Baseline@L4
    Format settings : 1 Ref Frames
    Format settings, CABAC : No
    Format settings, Reference fra : 1 frame
    Codec ID : V_MPEG4/ISO/AVC
    Duration : 3 h 0 min
    Bit rate : 9355 kb/s
    Width : 1920 pixels
    Height : 1080 pixels
    Display aspect ratio : 16:9
    Frame rate mode : Constant
    Frame rate : 25.000 FPS
    Color space : YUV
    Chroma subsampling : 4:2:0
    Bit depth : 8 bits
    Scan type : Progressive
    Bits/(Pixel*Frame) : 0.180
    Stream size : 11.8 GiB (92%)
    Writing library : x264 core 152 r2851 ba24899
    Encoding settings : cabac=0 / ref=1 / deblock=0:0:0 / analyse=0:0 / me=dia / subme=0 / psy=0 / mixed_ref=0 / me_range=16 / chroma_me=1 / trellis=0 / 8x8dct=0 / cqm=0 / deadzone=21,11 / fast_pskip=1 / chroma_qp_offset=0 / threads=18 / lookahead_threads=3 / sliced_threads=0 / nr=0 / decimate=1 / interlaced=0 / bluray_compat=0 / constrained_intra=0 / bframes=0 / weightp=0 / keyint=250 / keyint_min=25 / scenecut=0 / intra_refresh=0 / rc=crf / mbtree=0 / crf=23.0 / qcomp=0.60 / qpmin=0 / qpmax=69 / qpstep=4 / ip_ratio=1.40 / aq=0
    Language : English
    Default : Yes
    Forced : No

    Audio
    ID : 2
    Format : AC-3
    Format/Info : Audio Coding 3
    Commercial name : Dolby Digital
    Codec ID : A_AC3
    Duration : 3 h 0 min
    Bit rate mode : Constant
    Bit rate : 640 kb/s
    Channel(s) : 2 channels
    Channel layout : L R
    Sampling rate : 48.0 kHz
    Frame rate : 31.250 FPS (1536 SPF)
    Compression mode : Lossy
    Stream size : 824 MiB (6%)
    Language : English
    Service kind : Complete Main
    Default : Yes
    Forced : No
    Menu
    00:00:00.000 : :Chapter 1
    Hidden Content:
    You must either reply or click 'Like' to see the hidden information contained here.
    Little Mix: The Last Show (For Now) (The Confetti Tour) live from O2 Arena London, 14th May 2022 (Cinema Live) (Audio Feed) (MP3) [Maverick]

    Hidden Content:
    You must either reply or click 'Like' to see the hidden information contained here.

    Little Mix: The Last Show (For Now) (The Confetti Tour) live from O2 Arena London, 14th May 2022 (1080i) (Cinema Live) (Feed) (Encore Screening) (DD2.0) (Encoded) [MAVERICK]


    [​IMG]
    General
    Complete name : C:\Users\Maverick\Desktop\Little Mix; The Last Show (For Now) (The Confetti Tour) live from O2 Arena London, 14th May 2022 (1080i) (Cinema Live) (Feed) (Encore Screening) (DD2.0) (Encoded) [MAVERICK].mkv
    Format : Matroska
    Format version : Version 4
    File size : 10.6 GiB
    Duration : 2 h 13 min
    Overall bit rate : 11.3 Mb/s
    Movie name : Little Mix: The Last Show (For Now) (The Confetti Tour) live from O2 Arena London, 14th May 2022 (1080i) (Cinema Live) (Feed) (Encore Screening) (DD2.0) (Encoded) [MAVERICK]
    Encoded date : UTC 2022-05-16 10:06:07
    Writing application : mkvmerge v59.0.0 ('Shining Star') 64-bit
    Writing library : libebml v1.4.2 + libmatroska v1.6.4

    Video
    ID : 1
    Format : HEVC
    Format/Info : High Efficiency Video Coding
    Format profile : Main 10@L4@Main
    Codec ID : V_MPEGH/ISO/HEVC
    Duration : 2 h 13 min
    Bit rate : 10.7 Mb/s
    Width : 1920 pixels
    Height : 1080 pixels
    Display aspect ratio : 16:9
    Frame rate mode : Constant
    Frame rate : 25.000 FPS
    Color space : YUV
    Chroma subsampling : 4:2:0
    Bit depth : 10 bits
    Bits/(Pixel*Frame) : 0.206
    Stream size : 9.98 GiB (94%)
    Title : Little Mix: The Last Show (For Now) (The Confetti Tour) live from O2 Arena London, 14th May 2022 (1080i) (Cinema Live) (Feed) (Encore Screening) (DD2.0) (Encoded) [MAVERICK]
    Writing library : x265 3.5+10+13-7c9bc0cb14:[Windows][GCC 10.2.0][64 bit] 10bit
    Encoding settings : cpuid=1111039 / frame-threads=3 / numa-pools=12 / wpp / no-pmode / no-pme / no-psnr / no-ssim / log-level=2 / input-csp=1 / input-res=1920x1080 / interlace=0 / total-frames=200948 / level-idc=0 / high-tier=1 / uhd-bd=0 / ref=3 / no-allow-non-conformance / no-repeat-headers / annexb / no-aud / no-eob / no-eos / no-hrd / info / hash=0 / no-temporal-layers / open-gop / min-keyint=25 / keyint=250 / gop-lookahead=0 / bframes=4 / b-adapt=2 / b-pyramid / bframe-bias=0 / rc-lookahead=20 / lookahead-slices=6 / scenecut=40 / hist-scenecut=0 / radl=0 / no-splice / no-intra-refresh / ctu=64 / min-cu-size=8 / no-rect / no-amp / max-tu-size=32 / tu-inter-depth=1 / tu-intra-depth=1 / limit-tu=0 / rdoq-level=0 / dynamic-rd=0.00 / no-ssim-rd / signhide / no-tskip / nr-intra=0 / nr-inter=0 / no-constrained-intra / strong-intra-smoothing / max-merge=3 / limit-refs=3 / no-limit-modes / me=1 / subme=2 / merange=57 / temporal-mvp / no-frame-dup / no-hme / weightp / no-weightb / no-analyze-src-pics / deblock=0:0 / sao / no-sao-non-deblock / rd=3 / selective-sao=4 / early-skip / rskip / no-fast-intra / no-tskip-fast / no-cu-lossless / b-intra / no-splitrd-skip / rdpenalty=0 / psy-rd=2.00 / psy-rdoq=0.00 / no-rd-refine / no-lossless / cbqpoffs=0 / crqpoffs=0 / rc=crf / crf=18.0 / qcomp=0.60 / qpstep=4 / stats-write=0 / stats-read=0 / ipratio=1.40 / pbratio=1.30 / aq-mode=2 / aq-strength=1.00 / cutree / zone-count=0 / no-strict-cbr / qg-size=32 / no-rc-grain / qpmax=69 / qpmin=0 / no-const-vbv / sar=0 / overscan=0 / videoformat=5 / range=0 / colorprim=1 / transfer=1 / colormatrix=1 / chromaloc=0 / display-window=0 / cll=0,0 / min-luma=0 / max-luma=1023 / log2-max-poc-lsb=8 / vui-timing-info / vui-hrd-info / slices=1 / no-opt-qp-pps / no-opt-ref-list-length-pps / no-multi-pass-opt-rps / scenecut-bias=0.05 / hist-threshold=0.03 / no-opt-cu-delta-qp / no-aq-motion / no-hdr10 / no-hdr10-opt / no-dhdr10-opt / no-idr-recovery-sei / analysis-reuse-level=0 / analysis-save-reuse-level=0 / analysis-load-reuse-level=0 / scale-factor=0 / refine-intra=0 / refine-inter=0 / refine-mv=1 / refine-ctu-distortion=0 / no-limit-sao / ctu-info=0 / no-lowpass-dct / refine-analysis-type=0 / copy-pic=1 / max-ausize-factor=1.0 / no-dynamic-refine / no-single-sei / no-hevc-aq / no-svt / no-field / qp-adaptation-range=1.00 / scenecut-aware-qp=0 / conformance-window-right-offset=0 / conformance-window-bottom-offset=0 / decoder-max-rate=0 / no-vbv-live-multi-pass
    Language : English
    Default : Yes
    Forced : Yes
    Color range : Limited
    Color primaries : BT.709
    Transfer characteristics : BT.709
    Matrix coefficients : BT.709

    Audio
    ID : 2
    Format : AC-3
    Format/Info : Audio Coding 3
    Commercial name : Dolby Digital
    Codec ID : A_AC3
    Duration : 2 h 13 min
    Bit rate mode : Constant
    Bit rate : 640 kb/s
    Channel(s) : 2 channels
    Channel layout : L R
    Sampling rate : 48.0 kHz
    Frame rate : 31.250 FPS (1536 SPF)
    Compression mode : Lossy
    Stream size : 613 MiB (6%)
    Title : DD2.0
    Language : English
    Service kind : Complete Main
    Default : Yes
    Forced : Yes

    Menu
    00:00:00.000 : :Chapter 1

    Little Mix: The Last Show (For Now) (The Confetti Tour) live from O2 Arena London, 14th May 2022 (1080i) (Cinema Live) (Feed) (Encore Screening) (Uncompressed) [MAVERICK]

    [​IMG]
    General
    Complete name : C:\Users\Maverick\Desktop\Little Mix; The Last Show (For Now) (The Confetti Tour) live from O2 Arena London, 14th May 2022 (1080i) (Cinema Live) (Feed) (Edited & Uncom) (Encore Screening) [MAVERICK].mkv
    Format : Matroska
    Format version : Version 4
    File size : 17.2 GiB
    Duration : 2 h 13 min
    Overall bit rate : 18.4 Mb/s
    Movie name : Little Mix; The Last Show (For Now) (The Confetti Tour) live from O2 Arena London, 14th May 2022 (1080i) (Cinema Live) (Feed) (Edited & Uncom) (Encore Screening) [MAVERICK]
    Encoded date : UTC 2022-05-15 22:39:32
    Writing application : mkvmerge v59.0.0 ('Shining Star') 64-bit
    Writing library : libebml v1.4.2 + libmatroska v1.6.4

    Video
    ID : 1
    Format : AVC
    Format/Info : Advanced Video Codec
    Format profile : High@L4.1
    Format settings : CABAC / 4 Ref Frames
    Format settings, CABAC : Yes
    Format settings, Reference fra : 4 frames
    Codec ID : V_MPEG4/ISO/AVC
    Duration : 2 h 13 min
    Bit rate : 18.2 Mb/s
    Width : 1920 pixels
    Height : 1080 pixels
    Display aspect ratio : 16:9
    Frame rate mode : Variable
    Frame rate : 50.000 FPS
    Original frame rate : 25.000 FPS
    Color space : YUV
    Chroma subsampling : 4:2:0
    Bit depth : 8 bits
    Scan type : Interlaced
    Scan type, store method : Separated fields
    Scan order : Top Field First
    Bits/(Pixel*Frame) : 0.175
    Stream size : 17.0 GiB (99%)
    Title : Little Mix; The Last Show (For Now) (The Confetti Tour) live from O2 Arena London, 14th May 2022 (1080i) (Cinema Live) (Feed) (Edited & Uncom) (Encore Screening) [MAVERICK]
    Language : English
    Default : Yes
    Forced : Yes
    Color range : Limited
    Color primaries : BT.709
    Transfer characteristics : BT.709
    Matrix coefficients : BT.709

    Audio
    ID : 2
    Format : MPEG Audio
    Format version : Version 1
    Format profile : Layer 2
    Codec ID : A_MPEG/L2
    Codec ID/Hint : MP2
    Duration : 2 h 13 min
    Bit rate mode : Constant
    Bit rate : 192 kb/s
    Channel(s) : 2 channels
    Sampling rate : 48.0 kHz
    Frame rate : 41.667 FPS (1152 SPF)
    Compression mode : Lossy
    Stream size : 184 MiB (1%)
    Title : Stereo
    Language : English
    Default : Yes
    Forced : Yes
    Menu
    00:00:00.000 : :Chapter 1


    (1080i Test Loop Feed) (Edited & Encoded to H265)
    [​IMG]

    Hidden Content:
    You must either reply or click 'Like' to see the hidden information contained here.

    Please Note the Uncompressed Unedited Version is over 4 Hours Long Because i started recording as soon as the Satellite Feed Went Live in order to capture everything that was being shown on it, Thats Why i Have Now Edited and Encoded A New Version for those of you who want it!

    Please Note All files Have Been uploaded to Gofile, because its free fast upload and download speeds Grab them while you can once they get deleted i wont Reupload the Uncompressed Unedited one only the Edited Encoded one

    Please Credit Me Maverick if you are going to upload my files elsewhere!

    ALL LINKS NOW LIVE ENJOY!!

    PLEASE NOTE: THIS IS THE BEST QUALITY VIDEO AND AUDIO AVAILABLE UNTILL THEY RELEASE THIS ON BLURAY!

    Please Check Out ROH: Swan Lake Live, 19th May 2022 (1080i) (Feed) (DD5.1) (Uncompressed) [Maverick]
     
    Last edited: May 19, 2022 at 7:10 PM
  2. Loading...


  3. bigboyhassan2

    bigboyhassan2 Well-Known Member

    Joined:
    May 5, 2020
    Threads:
    27
    Messages:
    4,099
    Likes Received:
    312
    thank u
     
    UnitedReleases likes this.
  4. Dilson Nunes

    Dilson Nunes Active Member

    Joined:
    Sep 21, 2014
    Threads:
    0
    Messages:
    946
    Likes Received:
    155
    thnx!!!
     
    UnitedReleases likes this.
  5. UnitedReleases

    UnitedReleases Well-Known Member Uploader

    Joined:
    Jan 10, 2016
    Threads:
    260
    Messages:
    872
    Likes Received:
    1,574
    link will be live later tonight when its finished, test loop is available and uploaded now
     
    Last edited: May 14, 2022
    ngothanhthien and harmonizer54 like this.
  6. Fonny

    Fonny Active Member

    Joined:
    Dec 1, 2016
    Threads:
    0
    Messages:
    563
    Likes Received:
    55
    Please
     
    ngothanhthien and UnitedReleases like this.
  7. harmonizer54

    harmonizer54 Well-Known Member

    Joined:
    Jul 21, 2016
    Threads:
    83
    Messages:
    694
    Likes Received:
    1,036
    thank you :love:
     
    UnitedReleases likes this.
  8. durrss

    durrss Well-Known Member

    Joined:
    Sep 21, 2014
    Threads:
    71
    Messages:
    400
    Likes Received:
    1,255
    already waiting for this one!
     
    UnitedReleases likes this.
  9. 12wurzel

    12wurzel Well-Known Member

    Joined:
    Oct 16, 2016
    Threads:
    0
    Messages:
    1,638
    Likes Received:
    243
    thanks
     
    UnitedReleases likes this.
  10. ricardohugoo

    ricardohugoo Member

    Joined:
    Nov 15, 2017
    Threads:
    1
    Messages:
    54
    Likes Received:
    3
    thanks
     
    UnitedReleases likes this.
  11. stel883

    stel883 Active Member

    Joined:
    Jan 27, 2018
    Threads:
    12
    Messages:
    690
    Likes Received:
    221
    thanks, for sharing!!
     
    UnitedReleases likes this.
  12. stel883

    stel883 Active Member

    Joined:
    Jan 27, 2018
    Threads:
    12
    Messages:
    690
    Likes Received:
    221
    good luck for tonight!
     
    Last edited: May 14, 2022
    UnitedReleases likes this.
  13. lemissi1989

    lemissi1989 New Member

    Joined:
    Feb 13, 2022
    Threads:
    0
    Messages:
    25
    Likes Received:
    1
    thanks
     
    UnitedReleases likes this.
  14. Plazik

    Plazik Active Member

    Joined:
    Oct 7, 2013
    Threads:
    1
    Messages:
    465
    Likes Received:
    74
    Thanks!
     
    UnitedReleases likes this.
  15. dandan

    dandan Active Member

    Joined:
    Nov 12, 2020
    Threads:
    2
    Messages:
    528
    Likes Received:
    72
    thanks
     
    UnitedReleases likes this.
  16. UnitedReleases

    UnitedReleases Well-Known Member Uploader

    Joined:
    Jan 10, 2016
    Threads:
    260
    Messages:
    872
    Likes Received:
    1,574
    thanks :)
     
    Last edited: May 14, 2022
  17. sharemvs

    sharemvs ShareMVs

    Joined:
    Jul 15, 2020
    Threads:
    0
    Messages:
    236
    Likes Received:
    13
    Thanks
     
    UnitedReleases likes this.
  18. ChristinaAguileraFan

    ChristinaAguileraFan Active Member

    Joined:
    Sep 24, 2016
    Threads:
    34
    Messages:
    469
    Likes Received:
    26
  19. UnitedReleases

    UnitedReleases Well-Known Member Uploader

    Joined:
    Jan 10, 2016
    Threads:
    260
    Messages:
    872
    Likes Received:
    1,574
    Satellite Feed Has Gone live with this picture so im now recording the Feed and will be uploading when its finished see this picture as proof :) [​IMG]
     
    TimDixon2005: and harmonizer54 like this.
  20. Thura Aung Kyaw

    Thura Aung Kyaw Well-Known Member

    Joined:
    Dec 20, 2015
    Threads:
    7
    Messages:
    1,278
    Likes Received:
    109
  21. LucasCoelho

    LucasCoelho Aang1

    Joined:
    Aug 11, 2020
    Threads:
    0
    Messages:
    238
    Likes Received:
    22
    obrigado
     
    UnitedReleases likes this.