Little Mix - Black Magic (BIS.HD.1080i.DD5.1).-Crusha

Discussion in 'BIS HD' started by Crusha, Sep 7, 2015.

  1. Crusha

    Crusha Well-Known Member Capper V . I . P.

    Joined:
    Oct 15, 2014
    Messages:
    2,575
    Likes Received:
    4,479
    [​IMG]

    Mediainfo:
    General
    ID : 1 (0x1)
    Complete name : Little Mix - Black Magic (BIS.HD.1080i.DD5.1).-Crusha.ts
    Format : MPEG-TS
    File size : 109 MiB
    Duration : 3mn 45s
    Overall bit rate mode : Variable
    Overall bit rate : 4 072 Kbps

    Video
    ID : 2027 (0x7EB)
    Menu ID : 802 (0x322)
    Format : AVC
    Format/Info : Advanced Video Codec
    Format profile : High@L4
    Format settings, CABAC : Yes
    Format settings, ReFrames : 4 frames
    Codec ID : 27
    Duration : 3mn 44s
    Bit rate : 3 483 Kbps
    Width : 1 920 pixels
    Height : 1 080 pixels
    Display aspect ratio : 16:9
    Frame rate : 29.970 fps
    Standard : Component
    Color space : YUV
    Chroma subsampling : 4:2:0
    Bit depth : 8 bits
    Scan type : MBAFF
    Scan order : Top Field First
    Bits/(Pixel*Frame) : 0.056
    Stream size : 93.4 MiB (85%)
    Color range : Limited
    Color primaries : BT.709
    Transfer characteristics : BT.709
    Matrix coefficients : BT.709

    Audio
    ID : 3027 (0xBD3)
    Menu ID : 802 (0x322)
    Format : AC-3
    Format/Info : Audio Coding 3
    Mode extension : CM (complete main)
    Format settings, Endianness : Big
    Codec ID : 6
    Duration : 3mn 45s
    Bit rate mode : Constant
    Bit rate : 384 Kbps
    Channel(s) : 6 channels
    Channel positions : Front: L C R, Side: L R, LFE
    Sampling rate : 48.0 KHz
    Bit depth : 16 bits
    Compression mode : Lossy
    Delay relative to video : -100ms
    Stream size : 10.3 MiB (9%)
    Language : English

    Hidden Content:
    You must either reply or click 'Like' to see the hidden information contained here.
    Password: crusha

    Cap by Me :)
     
  2. kodak555

    kodak555 Member

    Joined:
    Jun 8, 2016
    Messages:
    80
    Likes Received:
    1
    thank you~~~
     
  3. bruno.foxx

    bruno.foxx Well-Known Member

    Joined:
    Apr 28, 2018
    Messages:
    1,346
    Likes Received:
    59
    vamos ver se vai dar certo
     
  4. thigurgelbritney

    thigurgelbritney Active Member

    Joined:
    Aug 2, 2018
    Messages:
    752
    Likes Received:
    34
  5. igjfplex

    igjfplex Member

    Joined:
    Apr 1, 2019
    Messages:
    160
    Likes Received:
    22
    tbhanks
     
  6. merrylorie

    merrylorie Member

    Joined:
    Feb 25, 2016
    Messages:
    404
    Likes Received:
    3
    Thank you!!!
     
  7. Zurc

    Zurc Member

    Joined:
    May 29, 2020
    Messages:
    52
    Likes Received:
    12
    Thanks
     
  8. lcslndr

    lcslndr Member

    Joined:
    May 29, 2020
    Messages:
    57
    Likes Received:
    2
    jajdhdks
     
  9. michaelca1

    michaelca1 Member

    Joined:
    Jul 26, 2021
    Messages:
    405
    Likes Received:
    1
    спасибо